<?xml version="1.0" standalone="no"?>
<!DOCTYPE svg PUBLIC "-//W3C//DTD SVG 1.1//EN" "http://www.w3.org/Graphics/SVG/1.1/DTD/svg11.dtd" >
<svg xmlns="http://www.w3.org/2000/svg" xmlns:xlink="http://www.w3.org/1999/xlink" version="1.1">
<metadata>
Created by FontForge 20190801 at Wed Mar 20 13:44:18 2019
 By root
Copyright 2019 Severin Meyer, with Reserved Font Name Oxanium
</metadata>
<defs>
<font id="Oxanium-SemiBold" horiz-adv-x="578" >
  <font-face 
    font-family="Oxanium SemiBold"
    font-weight="600"
    font-stretch="normal"
    units-per-em="1000"
    panose-1="2 0 7 3 0 0 0 0 0 0"
    ascent="790"
    descent="-210"
    x-height="525"
    cap-height="690"
    bbox="-495 -209 1198 983"
    underline-thickness="50"
    underline-position="-125"
    unicode-range="U+000D-FB02"
  />
<missing-glyph horiz-adv-x="591" 
d="M86 0v740h419v-740h-419zM155 69h281v602h-281v-602z" />
    <glyph glyph-name=".notdef" horiz-adv-x="591" 
d="M86 0v740h419v-740h-419zM155 69h281v602h-281v-602z" />
    <glyph glyph-name=".null" horiz-adv-x="0" 
 />
    <glyph glyph-name=".null" horiz-adv-x="0" 
 />
    <glyph glyph-name="nonmarkingreturn" unicode="&#xd;" horiz-adv-x="240" 
 />
    <glyph glyph-name="space" unicode=" " horiz-adv-x="240" 
 />
    <glyph glyph-name="exclam" unicode="!" horiz-adv-x="271" 
d="M70 0v131h131v-131h-131zM75 218v472h122v-472h-122z" />
    <glyph glyph-name="quotedbl" unicode="&#x22;" horiz-adv-x="433" 
d="M65 477v263h105v-263h-105zM262 477v263h105v-263h-105z" />
    <glyph glyph-name="numbersign" unicode="#" horiz-adv-x="675" 
d="M50 175v100h121v140h-121v100h121v175h105v-175h123v175h105v-175h121v-100h-121v-140h121v-100h-121v-175h-105v175h-123v-175h-105v175h-121zM276 275h123v140h-123v-140z" />
    <glyph glyph-name="dollar" unicode="$" 
d="M61 46v64h290q44 0 44 44v61q0 39 -35 46l-182 36q-117 24 -117 157v44q0 162 163 162h14v120h102v-120h98l59 -46v-64h-270q-44 0 -44 -44v-55q0 -39 35 -46l182 -36q117 -24 117 -156v-51q0 -162 -163 -162h-14v-120h-102v120h-118z" />
    <glyph glyph-name="percent" unicode="%" horiz-adv-x="874" 
d="M36 390v186q0 114 114 114h64q114 0 114 -114v-186q0 -114 -114 -114h-64q-114 0 -114 114zM128 379q0 -20 19 -20h69q20 0 20 20v208q0 20 -20 20h-69q-19 0 -19 -20v-208zM230 36l330 660l85 -42l-330 -660zM546 114v186q0 114 114 114h64q114 0 114 -114v-186
q0 -114 -114 -114h-64q-114 0 -114 114zM638 103q0 -20 19 -20h69q20 0 20 20v208q0 20 -20 20h-69q-19 0 -19 -20v-208z" />
    <glyph glyph-name="ampersand" unicode="&#x26;" horiz-adv-x="670" 
d="M65 158v93q0 52 33 80l42 35l-35 42q-20 24 -20 58v66q0 158 158 158h184l53 -39v-63h-232q-46 0 -46 -46v-83q0 -46 46 -46h382v-102h-100v-311h-307q-158 0 -158 158zM182 148q0 -46 46 -46h186v209h-186q-46 0 -46 -46v-117z" />
    <glyph glyph-name="quotesingle" unicode="'" horiz-adv-x="235" 
d="M65 477v263h105v-263h-105z" />
    <glyph glyph-name="parenleft" unicode="(" horiz-adv-x="334" 
d="M66 290q0 270 161 486l88 -66q-131 -185 -131 -420t131 -420l-88 -66q-161 216 -161 486z" />
    <glyph glyph-name="parenright" unicode=")" horiz-adv-x="334" 
d="M19 -130q130 185 130 420t-130 420l88 66q161 -216 161 -486t-161 -486z" />
    <glyph glyph-name="asterisk" unicode="*" horiz-adv-x="509" 
d="M41 503l27 83l141 -42v146h91v-146l141 42l27 -83l-139 -48l85 -119l-71 -52l-89 116l-88 -116l-71 52l84 119z" />
    <glyph glyph-name="plus" unicode="+" 
d="M61 285v100h175v185h106v-185h175v-100h-175v-185h-106v185h-175z" />
    <glyph glyph-name="comma" unicode="," horiz-adv-x="271" 
d="M26 -124l55 255h118l12 -18l-99 -259z" />
    <glyph glyph-name="hyphen" unicode="-" horiz-adv-x="373" 
d="M40 255v100h293v-100h-293z" />
    <glyph glyph-name="period" unicode="." horiz-adv-x="271" 
d="M70 0v131h131v-131h-131z" />
    <glyph glyph-name="slash" unicode="/" horiz-adv-x="419" 
d="M20 -19l280 764l99 -36l-280 -764z" />
    <glyph glyph-name="zero" unicode="0" 
d="M56 162v366q0 162 163 162h140q163 0 163 -162v-366q0 -162 -163 -162h-140q-163 0 -163 162zM178 154q0 -44 44 -44h134q44 0 44 44v382q0 44 -44 44h-134q-44 0 -44 -44v-382z" />
    <glyph glyph-name="one" unicode="1" 
d="M84 0v110h160v470h-131v64l59 46h194v-580h144v-110h-426z" />
    <glyph glyph-name="two" unicode="2" 
d="M56 0v219q0 133 117 157l192 38q35 7 35 46v76q0 44 -44 44h-280v64l59 46h224q163 0 163 -162v-65q0 -133 -117 -157l-192 -38q-35 -7 -35 -46v-112h344v-110h-466z" />
    <glyph glyph-name="three" unicode="3" 
d="M66 46v64h290q44 0 44 44v105q0 44 -44 44h-216v110h216q44 0 44 44v79q0 44 -44 44h-280v64l59 46h224q163 0 163 -162v-68q0 -40 -25 -65l-35 -35l35 -35q25 -25 25 -65v-98q0 -162 -163 -162h-234z" />
    <glyph glyph-name="four" unicode="4" 
d="M56 112v100l219 478h103l14 -26l-202 -442h210v208h122v-430h-122v112h-344z" />
    <glyph glyph-name="five" unicode="5" 
d="M46 46v64h310q44 0 44 44v115q0 44 -44 44h-300v377h436v-110h-314v-157h181q163 0 163 -163v-98q0 -162 -163 -162h-254z" />
    <glyph glyph-name="six" unicode="6" 
d="M56 162v333q0 195 196 195h171l59 -46v-64h-234q-70 0 -70 -70v-87h181q163 0 163 -163v-98q0 -162 -163 -162h-140q-163 0 -163 162zM178 154q0 -44 44 -44h134q44 0 44 44v115q0 44 -44 44h-178v-159z" />
    <glyph glyph-name="seven" unicode="7" 
d="M56 580v110h466v-200l-257 -490h-109l-15 26l259 490v64h-344z" />
    <glyph glyph-name="eight" unicode="8" 
d="M56 162v98q0 40 25 65l35 35l-35 35q-25 25 -25 65v68q0 162 163 162h140q163 0 163 -162v-68q0 -40 -25 -65l-35 -35l35 -35q25 -25 25 -65v-98q0 -162 -163 -162h-140q-163 0 -163 162zM178 154q0 -44 44 -44h134q44 0 44 44v105q0 44 -44 44h-134q-44 0 -44 -44v-105z
M178 457q0 -44 44 -44h134q44 0 44 44v79q0 44 -44 44h-134q-44 0 -44 -44v-79z" />
    <glyph glyph-name="nine" unicode="9" 
d="M56 429v99q0 162 163 162h140q163 0 163 -162v-333q0 -195 -196 -195h-181l-59 46v64h244q70 0 70 70v87h-181q-163 0 -163 162zM178 421q0 -44 44 -44h178v159q0 44 -44 44h-134q-44 0 -44 -44v-115z" />
    <glyph glyph-name="colon" unicode=":" horiz-adv-x="271" 
d="M70 0v131h131v-131h-131zM70 394v131h131v-131h-131z" />
    <glyph glyph-name="semicolon" unicode=";" horiz-adv-x="271" 
d="M26 -124l55 255h118l12 -18l-99 -259zM70 394v131h131v-131h-131z" />
    <glyph glyph-name="less" unicode="&#x3c;" 
d="M64 280v110l414 198l42 -89l-349 -164l349 -164l-42 -89z" />
    <glyph glyph-name="equal" unicode="=" 
d="M61 175v100h456v-100h-456zM61 395v100h456v-100h-456z" />
    <glyph glyph-name="greater" unicode="&#x3e;" 
d="M58 171l349 164l-349 164l42 89l414 -198v-110l-414 -198z" />
    <glyph glyph-name="question" unicode="?" horiz-adv-x="515" 
d="M40 580v64l59 46h204q162 0 162 -162v-87q0 -162 -162 -162h-23v-61h-121v171h140q44 0 44 44v103q0 44 -44 44h-259zM154 0v131h131v-131h-131z" />
    <glyph glyph-name="at" unicode="@" horiz-adv-x="805" 
d="M85 13v524q0 153 153 153h482v-630h-257q-158 0 -158 158v114q0 158 158 158h152v108h-375q-50 0 -50 -49v-548q0 -49 50 -49h460v-53l-53 -39h-409q-153 0 -153 153zM422 208q0 -46 46 -46h136v226h-136q-46 0 -46 -46v-134z" />
    <glyph glyph-name="A" unicode="A" horiz-adv-x="653" 
d="M19 24l213 666h189l213 -666l-16 -24h-101l-48 153h-286l-47 -153h-101zM217 263h219l-100 317h-19z" />
    <glyph glyph-name="B" unicode="B" horiz-adv-x="649" 
d="M85 0v690h323q162 0 162 -162v-64q0 -34 -20 -58l-35 -42l42 -35q33 -27 33 -80v-87q0 -162 -162 -162h-343zM207 110h217q44 0 44 44v105q0 44 -44 44h-217v-193zM207 413h197q44 0 44 44v79q0 44 -44 44h-197v-167z" />
    <glyph glyph-name="C" unicode="C" horiz-adv-x="619" 
d="M75 162v366q0 162 162 162h273l59 -46v-64h-328q-44 0 -44 -44v-382q0 -44 44 -44h328v-64l-59 -46h-273q-162 0 -162 162z" />
    <glyph glyph-name="D" unicode="D" horiz-adv-x="685" 
d="M85 0v690h265q270 0 270 -270v-150q0 -270 -270 -270h-265zM207 110h150q141 0 141 141v188q0 141 -141 141h-150v-470z" />
    <glyph glyph-name="E" unicode="E" horiz-adv-x="599" 
d="M85 0v690h464v-110h-342v-167h312v-110h-312v-193h342v-110h-464z" />
    <glyph glyph-name="F" unicode="F" horiz-adv-x="579" 
d="M85 0v690h464v-110h-342v-197h312v-110h-312v-273h-122z" />
    <glyph glyph-name="G" unicode="G" horiz-adv-x="675" 
d="M75 162v366q0 162 162 162h294l59 -46v-64h-349q-44 0 -44 -44v-382q0 -44 44 -44h247v193h-146v110h268v-413h-373q-162 0 -162 162z" />
    <glyph glyph-name="H" unicode="H" horiz-adv-x="705" 
d="M85 0v690h122v-277h291v277h122v-690h-122v303h-291v-303h-122z" />
    <glyph glyph-name="I" unicode="I" horiz-adv-x="292" 
d="M85 0v690h122v-690h-122z" />
    <glyph glyph-name="J" unicode="J" horiz-adv-x="609" 
d="M55 162v123h122v-131q0 -44 44 -44h143q44 0 44 44v426h-202v110h324v-528q0 -162 -162 -162h-151q-162 0 -162 162z" />
    <glyph glyph-name="K" unicode="K" horiz-adv-x="656" 
d="M85 0v690h122v-303l271 303h113l12 -25l-232 -259l257 -381l-12 -25h-112l-212 318l-85 -93v-225h-122z" />
    <glyph glyph-name="L" unicode="L" horiz-adv-x="543" 
d="M85 0v690h122v-580h312v-110h-434z" />
    <glyph glyph-name="M" unicode="M" horiz-adv-x="888" 
d="M85 0v690h149l210 -447l209 447h150v-690h-122v483l-183 -389h-109l-182 389v-483h-122z" />
    <glyph glyph-name="N" unicode="N" horiz-adv-x="731" 
d="M85 0v690h133l307 -493v493h121v-690h-132l-307 493v-493h-122z" />
    <glyph glyph-name="O" unicode="O" horiz-adv-x="705" 
d="M75 162v366q0 162 162 162h231q162 0 162 -162v-366q0 -162 -162 -162h-231q-162 0 -162 162zM197 154q0 -44 44 -44h223q44 0 44 44v382q0 44 -44 44h-223q-44 0 -44 -44v-382z" />
    <glyph glyph-name="P" unicode="P" horiz-adv-x="635" 
d="M85 0v690h333q162 0 162 -162v-133q0 -162 -162 -162h-211v-233h-122zM207 343h207q44 0 44 44v149q0 44 -44 44h-207v-237z" />
    <glyph glyph-name="Q" unicode="Q" horiz-adv-x="705" 
d="M75 162v366q0 162 162 162h231q162 0 162 -162v-366q0 -138 -118 -158l65 -128l-15 -26h-105l-76 150h-144q-162 0 -162 162zM197 154q0 -44 44 -44h223q44 0 44 44v382q0 44 -44 44h-223q-44 0 -44 -44v-382z" />
    <glyph glyph-name="R" unicode="R" horiz-adv-x="645" 
d="M85 0v690h333q162 0 162 -162v-113q0 -127 -100 -154l120 -235l-15 -26h-104l-128 253h-146v-253h-122zM207 363h207q44 0 44 44v129q0 44 -44 44h-207v-217z" />
    <glyph glyph-name="S" unicode="S" horiz-adv-x="585" 
d="M55 46v64h309q44 0 44 44v76q0 39 -34 46l-203 40q-116 24 -116 157v55q0 162 162 162h234l59 -46v-64h-289q-44 0 -44 -44v-66q0 -39 34 -46l203 -40q116 -24 116 -156v-66q0 -162 -162 -162h-254z" />
    <glyph glyph-name="T" unicode="T" horiz-adv-x="605" 
d="M24 580v110h557v-110h-218v-580h-122v580h-217z" />
    <glyph glyph-name="U" unicode="U" horiz-adv-x="693" 
d="M79 162v528h122v-536q0 -44 44 -44h203q44 0 44 44v536h122v-528q0 -162 -162 -162h-211q-162 0 -162 162z" />
    <glyph glyph-name="V" unicode="V" horiz-adv-x="643" 
d="M19 666l16 24h105l172 -580h19l172 580h105l16 -24l-204 -666h-197z" />
    <glyph glyph-name="W" unicode="W" horiz-adv-x="943" 
d="M29 666l17 24h100l122 -580h13l131 510h119l131 -510h13l122 580h100l17 -24l-144 -666h-196l-103 407l-102 -407h-196z" />
    <glyph glyph-name="X" unicode="X" horiz-adv-x="633" 
d="M29 25l220 330l-207 310l12 25h106l156 -238l156 238h107l12 -25l-207 -310l220 -330l-12 -25h-107l-169 258l-169 -258h-106z" />
    <glyph glyph-name="Y" unicode="Y" horiz-adv-x="603" 
d="M19 666l15 24h103l164 -314l164 314h104l15 -24l-222 -418v-248h-122v248z" />
    <glyph glyph-name="Z" unicode="Z" horiz-adv-x="605" 
d="M45 0v95l352 485h-342v110h495v-95l-352 -485h362v-110h-515z" />
    <glyph glyph-name="bracketleft" unicode="[" horiz-adv-x="366" 
d="M85 -180v940h251v-102h-134v-736h134v-102h-251z" />
    <glyph glyph-name="backslash" unicode="\" horiz-adv-x="419" 
d="M20 709l99 36l280 -764l-99 -36z" />
    <glyph glyph-name="bracketright" unicode="]" horiz-adv-x="366" 
d="M30 -78h135v736h-135v102h252v-940h-252v102z" />
    <glyph glyph-name="asciicircum" unicode="^" horiz-adv-x="555" 
d="M35 352l187 338h112l186 -338l-89 -50l-153 281l-154 -281z" />
    <glyph glyph-name="underscore" unicode="_" horiz-adv-x="580" 
d="M40 -100h500v-100h-500v100z" />
    <glyph glyph-name="grave" unicode="`" horiz-adv-x="500" 
d="M126 718l67 64l134 -153l-58 -54z" />
    <glyph glyph-name="a" unicode="a" horiz-adv-x="547" 
d="M205 0q-158 0 -158 156t158 156h155v65q0 47 -47 47h-212v62l52 39h166q157 0 157 -158v-367h-271zM164 148q0 -46 46 -46h150v116h-150q-46 0 -46 -46v-24z" />
    <glyph glyph-name="b" unicode="b" horiz-adv-x="587" 
d="M75 0v740h117v-215h171q157 0 157 -158v-209q0 -158 -157 -158h-288zM192 102h165q47 0 47 46v229q0 47 -47 47h-165v-322z" />
    <glyph glyph-name="c" unicode="c" horiz-adv-x="513" 
d="M67 158v209q0 158 158 158h189l53 -39v-62h-237q-46 0 -46 -47v-229q0 -46 46 -46h237v-63l-53 -39h-189q-158 0 -158 158z" />
    <glyph glyph-name="d" unicode="d" horiz-adv-x="587" 
d="M67 158v209q0 158 158 158h171v215h116v-740h-287q-158 0 -158 158zM184 148q0 -46 46 -46h166v322h-166q-46 0 -46 -47v-229z" />
    <glyph glyph-name="e" unicode="e" horiz-adv-x="579" 
d="M67 158v209q0 158 158 158h130q157 0 157 -158v-150h-328v-69q0 -46 46 -46h262v-63l-53 -39h-214q-158 0 -158 158zM184 311h212v66q0 47 -47 47h-119q-46 0 -46 -47v-66z" />
    <glyph glyph-name="f" unicode="f" horiz-adv-x="400" 
d="M75 0v582q0 158 158 158h95l52 -39v-63h-142q-46 0 -46 -46v-67h178v-101h-178v-424h-117z" />
    <glyph glyph-name="g" unicode="g" horiz-adv-x="582" 
d="M64 158v209q0 158 158 158h288v-567q0 -158 -158 -158h-192l-52 39v63h239q46 0 46 46v52h-171q-158 0 -158 158zM181 148q0 -46 46 -46h166v322h-166q-46 0 -46 -47v-229z" />
    <glyph glyph-name="h" unicode="h" horiz-adv-x="591" 
d="M75 0v740h117v-215h171q157 0 157 -158v-367h-116v377q0 47 -47 47h-165v-424h-117z" />
    <glyph glyph-name="i" unicode="i" horiz-adv-x="266" 
d="M73 614v118h121v-118h-121zM75 0v525h117v-525h-117z" />
    <glyph glyph-name="j" unicode="j" horiz-adv-x="266" 
d="M-9 -110q84 6 84 88v547h117v-533q0 -201 -201 -201v99zM73 614v118h121v-118h-121z" />
    <glyph glyph-name="k" unicode="k" horiz-adv-x="561" 
d="M75 0v740h117v-438l204 223h114l10 -20l-184 -199l198 -286l-10 -20h-113l-152 222l-67 -73v-149h-117z" />
    <glyph glyph-name="l" unicode="l" horiz-adv-x="292" 
d="M71 174v566h117v-578q0 -64 66 -70v-101q-183 0 -183 183z" />
    <glyph glyph-name="m" unicode="m" horiz-adv-x="901" 
d="M75 0v525h598q157 0 157 -158v-367h-116v377q0 47 -47 47h-156v-424h-117v424h-202v-424h-117z" />
    <glyph glyph-name="n" unicode="n" horiz-adv-x="591" 
d="M75 0v525h288q157 0 157 -158v-367h-116v377q0 47 -47 47h-165v-424h-117z" />
    <glyph glyph-name="o" unicode="o" horiz-adv-x="589" 
d="M67 158v209q0 158 158 158h140q157 0 157 -158v-209q0 -158 -157 -158h-140q-158 0 -158 158zM184 148q0 -46 46 -46h129q47 0 47 46v229q0 47 -47 47h-129q-46 0 -46 -47v-229z" />
    <glyph glyph-name="p" unicode="p" horiz-adv-x="587" 
d="M75 -200v725h288q157 0 157 -158v-209q0 -158 -157 -158h-171v-200h-117zM192 102h165q47 0 47 46v229q0 47 -47 47h-165v-322z" />
    <glyph glyph-name="q" unicode="q" horiz-adv-x="587" 
d="M67 158v209q0 158 158 158h287v-725h-116v200h-171q-158 0 -158 158zM184 148q0 -46 46 -46h166v322h-166q-46 0 -46 -47v-229z" />
    <glyph glyph-name="r" unicode="r" horiz-adv-x="392" 
d="M71 0v460q36 65 138 65h105l52 -39v-62h-137q-29 0 -41 -15v-409h-117z" />
    <glyph glyph-name="s" unicode="s" horiz-adv-x="505" 
d="M56 39v63h230q48 0 48 49q0 51 -42 58l-112 18q-124 21 -124 141q0 157 158 157h159l52 -39v-62h-206q-47 0 -47 -50q0 -47 41 -54l113 -19q123 -20 123 -144q0 -157 -157 -157h-183z" />
    <glyph glyph-name="t" unicode="t" horiz-adv-x="412" 
d="M71 158v532h117v-165h178v-101h-178v-276q0 -46 46 -46h142v-63l-52 -39h-95q-158 0 -158 158z" />
    <glyph glyph-name="u" unicode="u" horiz-adv-x="591" 
d="M71 158v367h117v-377q0 -46 46 -46h166v423h116v-525h-287q-158 0 -158 158z" />
    <glyph glyph-name="v" unicode="v" horiz-adv-x="543" 
d="M19 507l12 18h100l133 -423h14l133 423h101l12 -18l-165 -507h-175z" />
    <glyph glyph-name="w" unicode="w" horiz-adv-x="815" 
d="M23 507l13 18h98l89 -423h10l107 423h135l107 -423h10l89 423h98l13 -18l-112 -507h-177l-96 394l-95 -394h-177z" />
    <glyph glyph-name="x" unicode="x" horiz-adv-x="543" 
d="M29 20l177 246l-172 239l10 20h107l120 -172l120 172h108l9 -20l-171 -239l177 -246l-10 -20h-107l-126 179l-125 -179h-108z" />
    <glyph glyph-name="y" unicode="y" horiz-adv-x="543" 
d="M19 507l12 18h100l133 -423h14l133 423h101l12 -18l-230 -707h-100l-12 18l62 182h-60z" />
    <glyph glyph-name="z" unicode="z" horiz-adv-x="515" 
d="M45 0v88l266 336h-256v101h405v-88l-266 -335h276v-102h-425z" />
    <glyph glyph-name="braceleft" unicode="{" horiz-adv-x="405" 
d="M50 258v58l84 83v203q0 158 157 158h84v-102h-79q-46 0 -46 -46v-240l-85 -85l85 -85v-234q0 -46 46 -46h79v-102h-84q-157 0 -157 158v196z" />
    <glyph glyph-name="bar" unicode="|" horiz-adv-x="298" 
d="M96 -200v940h106v-940h-106z" />
    <glyph glyph-name="braceright" unicode="}" horiz-adv-x="405" 
d="M30 -78h79q46 0 46 46v234l85 85l-85 85v240q0 46 -46 46h-79v102h84q158 0 158 -158v-203l83 -83v-58l-83 -84v-196q0 -158 -158 -158h-84v102z" />
    <glyph glyph-name="asciitilde" unicode="~" 
d="M38 316l92 91q33 34 79 34t79 -34l61 -61q10 -10 20 -10t20 10l79 80l72 -72l-92 -91q-33 -34 -79 -34t-79 34l-61 61q-10 10 -20 10t-20 -10l-79 -80z" />
    <glyph glyph-name="uni00A0" unicode="&#xa0;" horiz-adv-x="240" 
 />
    <glyph glyph-name="exclamdown" unicode="&#xa1;" horiz-adv-x="271" 
d="M70 394v131h131v-131h-131zM75 -165v472h122v-472h-122z" />
    <glyph glyph-name="cent" unicode="&#xa2;" 
d="M86 158v209q0 158 158 158h24v110h96v-110h70l52 -39v-62h-237q-46 0 -46 -47v-229q0 -46 46 -46h237v-63l-52 -39h-70v-110h-96v110h-24q-158 0 -158 158z" />
    <glyph glyph-name="sterling" unicode="&#xa3;" 
d="M58 0v110h88v187h-88v96h88v135q0 162 163 162h142l59 -46v-64h-198q-44 0 -44 -44v-143h156v-96h-156v-187h262v-110h-472z" />
    <glyph glyph-name="currency" unicode="&#xa4;" 
d="M49 166l81 82v204l-81 82l61 61l82 -81h194l82 81l61 -61l-81 -82v-204l81 -82l-61 -61l-82 81h-194l-82 -81zM222 292q0 -19 19 -19h96q19 0 19 19v116q0 19 -19 19h-96q-19 0 -19 -19v-116z" />
    <glyph glyph-name="yen" unicode="&#xa5;" 
d="M17 666l15 24h103l154 -294l154 294h103l15 -24l-177 -332h103v-81h-137v-66h137v-81h-137v-106h-122v106h-137v81h137v66h-137v81h103z" />
    <glyph glyph-name="brokenbar" unicode="&#xa6;" horiz-adv-x="298" 
d="M96 174h106v-374h-106v374zM96 366v374h106v-374h-106z" />
    <glyph glyph-name="section" unicode="&#xa7;" horiz-adv-x="543" 
d="M75 2h230q47 0 47 49q0 51 -41 58l-112 18q-124 21 -124 141v103l48 48q-48 37 -48 114q0 157 158 157h159l52 -39v-63h-206q-47 0 -47 -49q0 -51 41 -58l112 -18q124 -21 124 -141v-103l-48 -48q48 -37 48 -114q0 -157 -157 -157h-183l-53 39v63zM191 274q0 -47 41 -54
l120 -20v116q0 47 -41 54l-120 20v-116z" />
    <glyph glyph-name="dieresis" unicode="&#xa8;" horiz-adv-x="500" 
d="M102 608v110h105v-110h-105zM294 608v110h105v-110h-105z" />
    <glyph glyph-name="copyright" unicode="&#xa9;" horiz-adv-x="843" 
d="M75 109v472q0 109 109 109h474q110 0 110 -109v-472q0 -109 -110 -109h-474q-109 0 -109 109zM161 97q0 -19 20 -19h481q19 0 19 19v496q0 19 -19 19h-481q-20 0 -20 -19v-496zM258 269v152q0 114 114 114h141l41 -33v-50h-185q-19 0 -19 -20v-174q0 -20 19 -20h185v-50
l-41 -33h-141q-114 0 -114 114z" />
    <glyph glyph-name="ordfeminine" unicode="&#xaa;" horiz-adv-x="403" 
d="M36 411v10q0 114 114 114h115v52q0 20 -20 20h-174v50l42 33h129q114 0 114 -114v-279h-206q-114 0 -114 114zM128 400q0 -19 19 -19h118v77h-118q-19 0 -19 -19v-39z" />
    <glyph glyph-name="guillemotleft" unicode="&#xab;" horiz-adv-x="554" 
d="M30 315l186 234l72 -60l-134 -174l134 -174l-72 -60zM255 315l186 234l72 -60l-134 -174l134 -174l-72 -60z" />
    <glyph glyph-name="logicalnot" unicode="&#xac;" 
d="M61 335v100h456v-288h-106v188h-350z" />
    <glyph glyph-name="uni00AD" unicode="&#xad;" horiz-adv-x="373" 
d="M40 255v100h293v-100h-293z" />
    <glyph glyph-name="registered" unicode="&#xae;" horiz-adv-x="843" 
d="M75 109v472q0 109 109 109h474q110 0 110 -109v-472q0 -109 -110 -109h-474q-109 0 -109 109zM161 97q0 -19 20 -19h481q19 0 19 19v496q0 19 -19 19h-481q-20 0 -20 -19v-496zM275 155v380h185q114 0 114 -114v-28q0 -77 -53 -101l59 -117l-11 -20h-79l-63 124h-61v-124
h-91zM366 362h97q19 0 19 20v50q0 20 -19 20h-97v-90z" />
    <glyph glyph-name="macron" unicode="&#xaf;" horiz-adv-x="500" 
d="M110 621v84h281v-84h-281z" />
    <glyph glyph-name="degree" unicode="&#xb0;" horiz-adv-x="411" 
d="M55 479v102q0 109 109 109h83q109 0 109 -109v-102q0 -109 -109 -109h-83q-109 0 -109 109zM141 467q0 -19 20 -19h89q20 0 20 19v126q0 19 -20 19h-89q-20 0 -20 -19v-126z" />
    <glyph glyph-name="plusminus" unicode="&#xb1;" 
d="M61 0v100h456v-100h-456zM61 317v101h175v172h106v-172h175v-101h-175v-172h-106v172h-175z" />
    <glyph glyph-name="uni00B2" unicode="&#xb2;" horiz-adv-x="364" 
d="M36 276v130q0 87 85 104l94 19q21 4 21 25v33q0 20 -20 20h-168v50l42 33h124q114 0 114 -114v-23q0 -88 -85 -105l-94 -19q-21 -4 -21 -24v-46h200v-83h-292z" />
    <glyph glyph-name="uni00B3" unicode="&#xb3;" horiz-adv-x="364" 
d="M42 309v50h174q20 0 20 20v47q0 20 -20 20h-130v83h130q20 0 20 19v39q0 20 -20 20h-168v50l42 33h124q114 0 114 -114v-21q0 -27 -17 -44l-23 -23l23 -23q17 -17 17 -44v-31q0 -114 -114 -114h-130z" />
    <glyph glyph-name="acute" unicode="&#xb4;" horiz-adv-x="500" 
d="M174 629l134 153l67 -64l-144 -143z" />
    <glyph glyph-name="mu" unicode="&#xb5;" horiz-adv-x="591" 
d="M75 -200v725h117v-423h165q47 0 47 46v377h116v-367q0 -158 -157 -158h-171v-200h-117z" />
    <glyph glyph-name="paragraph" unicode="&#xb6;" horiz-adv-x="625" 
d="M65 371v169q0 150 150 150h129v-469h-129q-150 0 -150 150zM414 -170v860h116v-860h-116z" />
    <glyph glyph-name="periodcentered" unicode="&#xb7;" horiz-adv-x="271" 
d="M70 249v131h131v-131h-131z" />
    <glyph glyph-name="cedilla" unicode="&#xb8;" horiz-adv-x="500" 
d="M139 -102h101q20 0 20 20v133h90v-121q0 -114 -114 -114h-55l-42 33v49z" />
    <glyph glyph-name="uni00B9" unicode="&#xb9;" horiz-adv-x="364" 
d="M54 276v83h93v248h-76v50l42 33h126v-331h83v-83h-268z" />
    <glyph glyph-name="ordmasculine" unicode="&#xba;" horiz-adv-x="433" 
d="M46 411v165q0 114 114 114h112q114 0 114 -114v-165q0 -114 -114 -114h-112q-114 0 -114 114zM138 400q0 -19 19 -19h118q20 0 20 19v187q0 20 -20 20h-118q-19 0 -19 -20v-187z" />
    <glyph glyph-name="guillemotright" unicode="&#xbb;" horiz-adv-x="554" 
d="M40 141l134 174l-134 174l72 60l186 -234l-186 -234zM265 141l134 174l-134 174l72 60l186 -234l-186 -234z" />
    <glyph glyph-name="onequarter" unicode="&#xbc;" horiz-adv-x="860" 
d="M54 276v83h93v248h-76v50l42 33h126v-331h83v-83h-268zM254 36l330 660l85 -42l-330 -660zM532 60v76l126 278h81l11 -18l-116 -253h98v111h92v-254h-92v60h-200z" />
    <glyph glyph-name="onehalf" unicode="&#xbd;" horiz-adv-x="908" 
d="M54 276v83h93v248h-76v50l42 33h126v-331h83v-83h-268zM254 36l330 660l85 -42l-330 -660zM581 0v130q0 87 85 104l94 19q21 4 21 25v33q0 20 -20 20h-168v50l42 33h124q114 0 114 -114v-23q0 -88 -85 -105l-94 -19q-21 -4 -21 -24v-46h200v-83h-292z" />
    <glyph glyph-name="threequarters" unicode="&#xbe;" horiz-adv-x="835" 
d="M42 309v50h174q20 0 20 20v47q0 20 -20 20h-130v83h130q20 0 20 19v39q0 20 -20 20h-168v50l42 33h124q114 0 114 -114v-21q0 -27 -17 -44l-23 -23l23 -23q17 -17 17 -44v-31q0 -114 -114 -114h-130zM230 36l330 660l85 -42l-330 -660zM507 60v76l126 278h81l11 -18
l-116 -253h98v111h92v-254h-92v60h-200z" />
    <glyph glyph-name="questiondown" unicode="&#xbf;" horiz-adv-x="495" 
d="M50 -3v87q0 162 162 162h22v61h122v-171h-140q-44 0 -44 -44v-103q0 -44 44 -44h259v-64l-59 -46h-204q-162 0 -162 162zM230 394v131h131v-131h-131z" />
    <glyph glyph-name="Agrave" unicode="&#xc0;" horiz-adv-x="653" 
d="M19 24l213 666h189l213 -666l-16 -24h-101l-48 153h-286l-47 -153h-101zM217 263h219l-100 317h-19zM202 873l67 64l134 -153l-57 -55z" />
    <glyph glyph-name="Aacute" unicode="&#xc1;" horiz-adv-x="653" 
d="M19 24l213 666h189l213 -666l-16 -24h-101l-48 153h-286l-47 -153h-101zM217 263h219l-100 317h-19zM250 784l135 153l67 -64l-144 -144z" />
    <glyph glyph-name="Acircumflex" unicode="&#xc2;" horiz-adv-x="653" 
d="M19 24l213 666h189l213 -666l-16 -24h-101l-48 153h-286l-47 -153h-101zM217 263h219l-100 317h-19zM177 790l150 147l150 -147l-52 -54l-98 93l-99 -93z" />
    <glyph glyph-name="Atilde" unicode="&#xc3;" horiz-adv-x="653" 
d="M19 24l213 666h189l213 -666l-16 -24h-101l-48 153h-286l-47 -153h-101zM217 263h219l-100 317h-19zM158 802l63 63q20 20 53 20t53 -20l42 -42q5 -5 10 -5t10 5l55 55l51 -52l-63 -63q-20 -20 -53 -20t-53 20l-42 42q-5 5 -10 5t-10 -5l-55 -55z" />
    <glyph glyph-name="Adieresis" unicode="&#xc4;" horiz-adv-x="653" 
d="M19 24l213 666h189l213 -666l-16 -24h-101l-48 153h-286l-47 -153h-101zM217 263h219l-100 317h-19zM178 763v110h105v-110h-105zM370 763v110h106v-110h-106z" />
    <glyph glyph-name="Aring" unicode="&#xc5;" horiz-adv-x="653" 
d="M19 24l213 666h189l213 -666l-16 -24h-101l-48 153h-286l-47 -153h-101zM217 263h219l-100 317h-19zM216 801v58q0 76 76 76h69q77 0 77 -76v-58q0 -76 -77 -76h-69q-76 0 -76 76zM284 797q0 -12 13 -12h60q12 0 12 12v66q0 12 -12 12h-60q-13 0 -13 -12v-66z" />
    <glyph glyph-name="AE" unicode="&#xc6;" horiz-adv-x="914" 
d="M19 24l213 666h632v-110h-323v-167h293v-110h-293v-193h323v-110h-445v153h-236l-47 -153h-101zM217 263h202v317h-102z" />
    <glyph glyph-name="Ccedilla" unicode="&#xc7;" horiz-adv-x="619" 
d="M75 162v366q0 162 162 162h273l59 -46v-64h-328q-44 0 -44 -44v-382q0 -44 44 -44h328v-64l-59 -46h-273q-162 0 -162 162zM231 -102h101q20 0 20 20v133h90v-121q0 -114 -114 -114h-55l-42 33v49z" />
    <glyph glyph-name="Egrave" unicode="&#xc8;" horiz-adv-x="599" 
d="M85 0v690h464v-110h-342v-167h312v-110h-312v-193h342v-110h-464zM194 873l67 64l134 -153l-57 -55z" />
    <glyph glyph-name="Eacute" unicode="&#xc9;" horiz-adv-x="599" 
d="M85 0v690h464v-110h-342v-167h312v-110h-312v-193h342v-110h-464zM242 784l135 153l67 -64l-144 -144z" />
    <glyph glyph-name="Ecircumflex" unicode="&#xca;" horiz-adv-x="599" 
d="M85 0v690h464v-110h-342v-167h312v-110h-312v-193h342v-110h-464zM169 790l150 147l150 -147l-52 -54l-98 93l-99 -93z" />
    <glyph glyph-name="Edieresis" unicode="&#xcb;" horiz-adv-x="599" 
d="M85 0v690h464v-110h-342v-167h312v-110h-312v-193h342v-110h-464zM170 763v110h105v-110h-105zM362 763v110h106v-110h-106z" />
    <glyph glyph-name="Igrave" unicode="&#xcc;" horiz-adv-x="292" 
d="M85 0v690h122v-690h-122zM21 873l67 64l134 -153l-57 -55z" />
    <glyph glyph-name="Iacute" unicode="&#xcd;" horiz-adv-x="292" 
d="M85 0v690h122v-690h-122zM69 784l135 153l67 -64l-144 -144z" />
    <glyph glyph-name="Icircumflex" unicode="&#xce;" horiz-adv-x="292" 
d="M85 0v690h122v-690h-122zM-4 790l150 147l150 -147l-52 -54l-98 93l-99 -93z" />
    <glyph glyph-name="Idieresis" unicode="&#xcf;" horiz-adv-x="292" 
d="M85 0v690h122v-690h-122zM-3 763v110h105v-110h-105zM189 763v110h106v-110h-106z" />
    <glyph glyph-name="Eth" unicode="&#xd0;" horiz-adv-x="699" 
d="M20 297v96h79v297h292q243 0 243 -243v-204q0 -243 -243 -243h-292v297h-79zM221 110h170q121 0 121 121v228q0 121 -121 121h-170v-187h145v-96h-145v-187z" />
    <glyph glyph-name="Ntilde" unicode="&#xd1;" horiz-adv-x="731" 
d="M85 0v690h133l307 -493v493h121v-690h-132l-307 493v-493h-122zM203 802l63 63q20 20 53 20t53 -20l42 -42q5 -5 10 -5t10 5l55 55l51 -52l-63 -63q-20 -20 -53 -20t-53 20l-42 42q-5 5 -10 5t-10 -5l-55 -55z" />
    <glyph glyph-name="Ograve" unicode="&#xd2;" horiz-adv-x="705" 
d="M75 162v366q0 162 162 162h231q162 0 162 -162v-366q0 -162 -162 -162h-231q-162 0 -162 162zM197 154q0 -44 44 -44h223q44 0 44 44v382q0 44 -44 44h-223q-44 0 -44 -44v-382zM228 873l67 64l134 -153l-57 -55z" />
    <glyph glyph-name="Oacute" unicode="&#xd3;" horiz-adv-x="705" 
d="M75 162v366q0 162 162 162h231q162 0 162 -162v-366q0 -162 -162 -162h-231q-162 0 -162 162zM197 154q0 -44 44 -44h223q44 0 44 44v382q0 44 -44 44h-223q-44 0 -44 -44v-382zM276 784l135 153l67 -64l-144 -144z" />
    <glyph glyph-name="Ocircumflex" unicode="&#xd4;" horiz-adv-x="705" 
d="M75 162v366q0 162 162 162h231q162 0 162 -162v-366q0 -162 -162 -162h-231q-162 0 -162 162zM197 154q0 -44 44 -44h223q44 0 44 44v382q0 44 -44 44h-223q-44 0 -44 -44v-382zM203 790l150 147l150 -147l-52 -54l-98 93l-99 -93z" />
    <glyph glyph-name="Otilde" unicode="&#xd5;" horiz-adv-x="705" 
d="M75 162v366q0 162 162 162h231q162 0 162 -162v-366q0 -162 -162 -162h-231q-162 0 -162 162zM197 154q0 -44 44 -44h223q44 0 44 44v382q0 44 -44 44h-223q-44 0 -44 -44v-382zM184 802l63 63q20 20 53 20t53 -20l42 -42q5 -5 10 -5t10 5l55 55l51 -52l-63 -63
q-20 -20 -53 -20t-53 20l-42 42q-5 5 -10 5t-10 -5l-55 -55z" />
    <glyph glyph-name="Odieresis" unicode="&#xd6;" horiz-adv-x="705" 
d="M75 162v366q0 162 162 162h231q162 0 162 -162v-366q0 -162 -162 -162h-231q-162 0 -162 162zM197 154q0 -44 44 -44h223q44 0 44 44v382q0 44 -44 44h-223q-44 0 -44 -44v-382zM204 763v110h105v-110h-105zM396 763v110h106v-110h-106z" />
    <glyph glyph-name="multiply" unicode="&#xd7;" 
d="M73 191l145 144l-145 144l72 72l144 -145l144 145l72 -72l-145 -144l145 -144l-72 -72l-144 145l-144 -145z" />
    <glyph glyph-name="Oslash" unicode="&#xd8;" horiz-adv-x="705" 
d="M75 162v366q0 162 162 162h231q162 0 162 -162v-366q0 -162 -162 -162h-231q-162 0 -162 162zM197 264l310 280q-3 36 -43 36h-223q-44 0 -44 -44v-272zM198 146q3 -36 43 -36h223q44 0 44 44v272z" />
    <glyph glyph-name="Ugrave" unicode="&#xd9;" horiz-adv-x="693" 
d="M79 162v528h122v-536q0 -44 44 -44h203q44 0 44 44v536h122v-528q0 -162 -162 -162h-211q-162 0 -162 162zM222 873l67 64l134 -153l-57 -55z" />
    <glyph glyph-name="Uacute" unicode="&#xda;" horiz-adv-x="693" 
d="M79 162v528h122v-536q0 -44 44 -44h203q44 0 44 44v536h122v-528q0 -162 -162 -162h-211q-162 0 -162 162zM270 784l135 153l67 -64l-144 -144z" />
    <glyph glyph-name="Ucircumflex" unicode="&#xdb;" horiz-adv-x="693" 
d="M79 162v528h122v-536q0 -44 44 -44h203q44 0 44 44v536h122v-528q0 -162 -162 -162h-211q-162 0 -162 162zM197 790l150 147l150 -147l-52 -54l-98 93l-99 -93z" />
    <glyph glyph-name="Udieresis" unicode="&#xdc;" horiz-adv-x="693" 
d="M79 162v528h122v-536q0 -44 44 -44h203q44 0 44 44v536h122v-528q0 -162 -162 -162h-211q-162 0 -162 162zM198 763v110h105v-110h-105zM390 763v110h106v-110h-106z" />
    <glyph glyph-name="Yacute" unicode="&#xdd;" horiz-adv-x="603" 
d="M19 666l15 24h103l164 -314l164 314h104l15 -24l-222 -418v-248h-122v248zM225 784l135 153l67 -64l-144 -144z" />
    <glyph glyph-name="Thorn" unicode="&#xde;" horiz-adv-x="635" 
d="M85 0v690h122v-107h211q162 0 162 -163v-136q0 -163 -162 -163h-211v-121h-122zM207 231h207q44 0 44 44v154q0 44 -44 44h-207v-242z" />
    <glyph glyph-name="germandbls" unicode="&#xdf;" horiz-adv-x="613" 
d="M75 0v582q0 158 158 158h136q157 0 157 -158v-91q0 -34 -20 -58l-35 -42l42 -35q33 -28 33 -80v-118q0 -158 -157 -158h-73l-52 39v63h120q46 0 46 46v140q0 46 -46 46h-110v102h90q46 0 46 46v110q0 46 -46 46h-126q-46 0 -46 -46v-592h-117z" />
    <glyph glyph-name="agrave" unicode="&#xe0;" horiz-adv-x="547" 
d="M205 0q-158 0 -158 156t158 156h155v65q0 47 -47 47h-212v62l52 39h166q157 0 157 -158v-367h-271zM164 148q0 -46 46 -46h150v116h-150q-46 0 -46 -46v-24zM150 718l67 64l134 -153l-58 -54z" />
    <glyph glyph-name="aacute" unicode="&#xe1;" horiz-adv-x="547" 
d="M205 0q-158 0 -158 156t158 156h155v65q0 47 -47 47h-212v62l52 39h166q157 0 157 -158v-367h-271zM164 148q0 -46 46 -46h150v116h-150q-46 0 -46 -46v-24zM198 629l134 153l67 -64l-144 -143z" />
    <glyph glyph-name="acircumflex" unicode="&#xe2;" horiz-adv-x="547" 
d="M205 0q-158 0 -158 156t158 156h155v65q0 47 -47 47h-212v62l52 39h166q157 0 157 -158v-367h-271zM164 148q0 -46 46 -46h150v116h-150q-46 0 -46 -46v-24zM125 635l149 147l150 -147l-51 -54l-99 93l-98 -93z" />
    <glyph glyph-name="atilde" unicode="&#xe3;" horiz-adv-x="547" 
d="M205 0q-158 0 -158 156t158 156h155v65q0 47 -47 47h-212v62l52 39h166q157 0 157 -158v-367h-271zM164 148q0 -46 46 -46h150v116h-150q-46 0 -46 -46v-24zM106 647l63 63q20 20 53 20t53 -20l42 -42q5 -5 10 -5t10 5l55 55l51 -52l-63 -63q-20 -20 -53 -20t-53 20
l-42 42q-5 5 -10 5t-10 -5l-55 -55z" />
    <glyph glyph-name="adieresis" unicode="&#xe4;" horiz-adv-x="547" 
d="M205 0q-158 0 -158 156t158 156h155v65q0 47 -47 47h-212v62l52 39h166q157 0 157 -158v-367h-271zM164 148q0 -46 46 -46h150v116h-150q-46 0 -46 -46v-24zM126 608v110h105v-110h-105zM318 608v110h105v-110h-105z" />
    <glyph glyph-name="aring" unicode="&#xe5;" horiz-adv-x="547" 
d="M205 0q-158 0 -158 156t158 156h155v65q0 47 -47 47h-212v62l52 39h166q157 0 157 -158v-367h-271zM164 148q0 -46 46 -46h150v116h-150q-46 0 -46 -46v-24zM164 646v58q0 76 76 76h69q76 0 76 -76v-58q0 -76 -76 -76h-69q-76 0 -76 76zM232 642q0 -12 12 -12h60
q13 0 13 12v66q0 12 -13 12h-60q-12 0 -12 -12v-66z" />
    <glyph glyph-name="ae" unicode="&#xe6;" horiz-adv-x="866" 
d="M205 0q-158 0 -158 156t158 156h153v65q0 47 -46 47h-211v62l52 39h153q70 0 110 -40q40 40 111 40h115q157 0 157 -158v-150h-324v-69q0 -46 46 -46h258v-63l-52 -39h-200q-71 0 -111 40q-40 -40 -110 -40h-101zM164 148q0 -46 46 -46h102q46 0 46 46v70h-148
q-46 0 -46 -46v-24zM475 311h208v66q0 47 -46 47h-116q-46 0 -46 -47v-66z" />
    <glyph glyph-name="ccedilla" unicode="&#xe7;" horiz-adv-x="513" 
d="M67 158v209q0 158 158 158h189l53 -39v-62h-237q-46 0 -46 -47v-229q0 -46 46 -46h237v-63l-53 -39h-189q-158 0 -158 158zM175 -102h101q20 0 20 20v133h90v-121q0 -114 -114 -114h-55l-42 33v49z" />
    <glyph glyph-name="egrave" unicode="&#xe8;" horiz-adv-x="579" 
d="M67 158v209q0 158 158 158h130q157 0 157 -158v-150h-328v-69q0 -46 46 -46h262v-63l-53 -39h-214q-158 0 -158 158zM184 311h212v66q0 47 -47 47h-119q-46 0 -46 -47v-66zM165 718l67 64l134 -153l-58 -54z" />
    <glyph glyph-name="eacute" unicode="&#xe9;" horiz-adv-x="579" 
d="M67 158v209q0 158 158 158h130q157 0 157 -158v-150h-328v-69q0 -46 46 -46h262v-63l-53 -39h-214q-158 0 -158 158zM184 311h212v66q0 47 -47 47h-119q-46 0 -46 -47v-66zM213 629l134 153l67 -64l-144 -143z" />
    <glyph glyph-name="ecircumflex" unicode="&#xea;" horiz-adv-x="579" 
d="M67 158v209q0 158 158 158h130q157 0 157 -158v-150h-328v-69q0 -46 46 -46h262v-63l-53 -39h-214q-158 0 -158 158zM184 311h212v66q0 47 -47 47h-119q-46 0 -46 -47v-66zM140 635l149 147l150 -147l-51 -54l-99 93l-98 -93z" />
    <glyph glyph-name="edieresis" unicode="&#xeb;" horiz-adv-x="579" 
d="M67 158v209q0 158 158 158h130q157 0 157 -158v-150h-328v-69q0 -46 46 -46h262v-63l-53 -39h-214q-158 0 -158 158zM184 311h212v66q0 47 -47 47h-119q-46 0 -46 -47v-66zM141 608v110h105v-110h-105zM333 608v110h105v-110h-105z" />
    <glyph glyph-name="igrave" unicode="&#xec;" horiz-adv-x="266" 
d="M75 0v525h117v-525h-117zM9 718l67 64l134 -153l-58 -54z" />
    <glyph glyph-name="iacute" unicode="&#xed;" horiz-adv-x="266" 
d="M75 0v525h117v-525h-117zM57 629l134 153l67 -64l-144 -143z" />
    <glyph glyph-name="icircumflex" unicode="&#xee;" horiz-adv-x="266" 
d="M75 0v525h117v-525h-117zM-16 635l149 147l150 -147l-51 -54l-99 93l-98 -93z" />
    <glyph glyph-name="idieresis" unicode="&#xef;" horiz-adv-x="266" 
d="M75 0v525h117v-525h-117zM-15 608v110h105v-110h-105zM177 608v110h105v-110h-105z" />
    <glyph glyph-name="eth" unicode="&#xf0;" horiz-adv-x="589" 
d="M67 158v134q0 158 158 158h159l-66 103l-109 -52l-37 81l99 48l-45 70l92 59l52 -82l95 45l37 -81l-84 -39l67 -107q37 -59 37 -119v-218q0 -158 -157 -158h-140q-158 0 -158 158zM184 148q0 -46 46 -46h129q47 0 47 46v200h-176q-46 0 -46 -46v-154z" />
    <glyph glyph-name="ntilde" unicode="&#xf1;" horiz-adv-x="591" 
d="M75 0v525h288q157 0 157 -158v-367h-116v377q0 47 -47 47h-165v-424h-117zM129 647l63 63q20 20 53 20t53 -20l42 -42q5 -5 10 -5t10 5l55 55l51 -52l-63 -63q-20 -20 -53 -20t-53 20l-42 42q-5 5 -10 5t-10 -5l-55 -55z" />
    <glyph glyph-name="ograve" unicode="&#xf2;" horiz-adv-x="589" 
d="M67 158v209q0 158 158 158h140q157 0 157 -158v-209q0 -158 -157 -158h-140q-158 0 -158 158zM184 148q0 -46 46 -46h129q47 0 47 46v229q0 47 -47 47h-129q-46 0 -46 -47v-229zM170 718l67 64l134 -153l-58 -54z" />
    <glyph glyph-name="oacute" unicode="&#xf3;" horiz-adv-x="589" 
d="M67 158v209q0 158 158 158h140q157 0 157 -158v-209q0 -158 -157 -158h-140q-158 0 -158 158zM184 148q0 -46 46 -46h129q47 0 47 46v229q0 47 -47 47h-129q-46 0 -46 -47v-229zM218 629l134 153l67 -64l-144 -143z" />
    <glyph glyph-name="ocircumflex" unicode="&#xf4;" horiz-adv-x="589" 
d="M67 158v209q0 158 158 158h140q157 0 157 -158v-209q0 -158 -157 -158h-140q-158 0 -158 158zM184 148q0 -46 46 -46h129q47 0 47 46v229q0 47 -47 47h-129q-46 0 -46 -47v-229zM145 635l149 147l150 -147l-51 -54l-99 93l-98 -93z" />
    <glyph glyph-name="otilde" unicode="&#xf5;" horiz-adv-x="589" 
d="M67 158v209q0 158 158 158h140q157 0 157 -158v-209q0 -158 -157 -158h-140q-158 0 -158 158zM184 148q0 -46 46 -46h129q47 0 47 46v229q0 47 -47 47h-129q-46 0 -46 -47v-229zM126 647l63 63q20 20 53 20t53 -20l42 -42q5 -5 10 -5t10 5l55 55l51 -52l-63 -63
q-20 -20 -53 -20t-53 20l-42 42q-5 5 -10 5t-10 -5l-55 -55z" />
    <glyph glyph-name="odieresis" unicode="&#xf6;" horiz-adv-x="589" 
d="M67 158v209q0 158 158 158h140q157 0 157 -158v-209q0 -158 -157 -158h-140q-158 0 -158 158zM184 148q0 -46 46 -46h129q47 0 47 46v229q0 47 -47 47h-129q-46 0 -46 -47v-229zM146 608v110h105v-110h-105zM338 608v110h105v-110h-105z" />
    <glyph glyph-name="divide" unicode="&#xf7;" 
d="M61 285v100h456v-100h-456zM235 91v108h108v-108h-108zM235 471v108h108v-108h-108z" />
    <glyph glyph-name="oslash" unicode="&#xf8;" horiz-adv-x="589" 
d="M67 158v209q0 158 158 158h140q157 0 157 -158v-209q0 -158 -157 -158h-140q-158 0 -158 158zM184 218l211 190q-12 16 -36 16h-129q-46 0 -46 -47v-159zM194 117q12 -15 36 -15h129q47 0 47 46v159z" />
    <glyph glyph-name="ugrave" unicode="&#xf9;" horiz-adv-x="591" 
d="M71 158v367h117v-377q0 -46 46 -46h166v423h116v-525h-287q-158 0 -158 158zM169 718l67 64l134 -153l-58 -54z" />
    <glyph glyph-name="uacute" unicode="&#xfa;" horiz-adv-x="591" 
d="M71 158v367h117v-377q0 -46 46 -46h166v423h116v-525h-287q-158 0 -158 158zM217 629l134 153l67 -64l-144 -143z" />
    <glyph glyph-name="ucircumflex" unicode="&#xfb;" horiz-adv-x="591" 
d="M71 158v367h117v-377q0 -46 46 -46h166v423h116v-525h-287q-158 0 -158 158zM144 635l149 147l150 -147l-51 -54l-99 93l-98 -93z" />
    <glyph glyph-name="udieresis" unicode="&#xfc;" horiz-adv-x="591" 
d="M71 158v367h117v-377q0 -46 46 -46h166v423h116v-525h-287q-158 0 -158 158zM145 608v110h105v-110h-105zM337 608v110h105v-110h-105z" />
    <glyph glyph-name="yacute" unicode="&#xfd;" horiz-adv-x="543" 
d="M19 507l12 18h100l133 -423h14l133 423h101l12 -18l-230 -707h-100l-12 18l62 182h-60zM195 629l134 153l67 -64l-144 -143z" />
    <glyph glyph-name="thorn" unicode="&#xfe;" horiz-adv-x="587" 
d="M75 -200v940h117v-215h171q157 0 157 -158v-209q0 -158 -157 -158h-171v-200h-117zM192 102h165q47 0 47 46v229q0 47 -47 47h-165v-322z" />
    <glyph glyph-name="ydieresis" unicode="&#xff;" horiz-adv-x="543" 
d="M19 507l12 18h100l133 -423h14l133 423h101l12 -18l-230 -707h-100l-12 18l62 182h-60zM123 608v110h105v-110h-105zM315 608v110h105v-110h-105z" />
    <glyph glyph-name="Amacron" unicode="&#x100;" horiz-adv-x="653" 
d="M19 24l213 666h189l213 -666l-16 -24h-101l-48 153h-286l-47 -153h-101zM217 263h219l-100 317h-19zM187 776v84h280v-84h-280z" />
    <glyph glyph-name="amacron" unicode="&#x101;" horiz-adv-x="547" 
d="M205 0q-158 0 -158 156t158 156h155v65q0 47 -47 47h-212v62l52 39h166q157 0 157 -158v-367h-271zM164 148q0 -46 46 -46h150v116h-150q-46 0 -46 -46v-24zM134 621v84h281v-84h-281z" />
    <glyph glyph-name="Abreve" unicode="&#x102;" horiz-adv-x="653" 
d="M19 24l213 666h189l213 -666l-16 -24h-101l-48 153h-286l-47 -153h-101zM217 263h219l-100 317h-19zM194 832v62h70v-60q0 -12 12 -12h102q12 0 12 12v60h70v-62q0 -80 -80 -80h-106q-80 0 -80 80z" />
    <glyph glyph-name="abreve" unicode="&#x103;" horiz-adv-x="547" 
d="M205 0q-158 0 -158 156t158 156h155v65q0 47 -47 47h-212v62l52 39h166q157 0 157 -158v-367h-271zM164 148q0 -46 46 -46h150v116h-150q-46 0 -46 -46v-24zM141 677v62h71v-60q0 -12 11 -12h103q11 0 11 12v60h71v-62q0 -80 -81 -80h-106q-80 0 -80 80z" />
    <glyph glyph-name="Aogonek" unicode="&#x104;" horiz-adv-x="653" 
d="M19 24l213 666h189l213 -666l-16 -24h-101l-48 153h-286l-47 -153h-101zM217 263h219l-100 317h-19zM427 -32q0 114 114 114h21v-82h-25q-20 0 -20 -20v-62q0 -20 20 -20h97v-49l-42 -33h-51q-114 0 -114 114v38z" />
    <glyph glyph-name="aogonek" unicode="&#x105;" horiz-adv-x="547" 
d="M205 0q-158 0 -158 156t158 156h155v65q0 47 -47 47h-212v62l52 39h166q157 0 157 -158v-367h-271zM164 148q0 -46 46 -46h150v116h-150q-46 0 -46 -46v-24zM269 -32q0 114 114 114h21v-82h-25q-20 0 -20 -20v-62q0 -20 20 -20h97v-49l-42 -33h-51q-114 0 -114 114v38z
" />
    <glyph glyph-name="Cacute" unicode="&#x106;" horiz-adv-x="619" 
d="M75 162v366q0 162 162 162h273l59 -46v-64h-328q-44 0 -44 -44v-382q0 -44 44 -44h328v-64l-59 -46h-273q-162 0 -162 162zM266 784l135 153l67 -64l-144 -144z" />
    <glyph glyph-name="cacute" unicode="&#x107;" horiz-adv-x="513" 
d="M67 158v209q0 158 158 158h189l53 -39v-62h-237q-46 0 -46 -47v-229q0 -46 46 -46h237v-63l-53 -39h-189q-158 0 -158 158zM210 629l134 153l67 -64l-144 -143z" />
    <glyph glyph-name="Ccaron" unicode="&#x10c;" horiz-adv-x="619" 
d="M75 162v366q0 162 162 162h273l59 -46v-64h-328q-44 0 -44 -44v-382q0 -44 44 -44h328v-64l-59 -46h-273q-162 0 -162 162zM193 873l51 54l99 -93l98 93l52 -54l-150 -147z" />
    <glyph glyph-name="ccaron" unicode="&#x10d;" horiz-adv-x="513" 
d="M67 158v209q0 158 158 158h189l53 -39v-62h-237q-46 0 -46 -47v-229q0 -46 46 -46h237v-63l-53 -39h-189q-158 0 -158 158zM137 718l51 54l98 -93l99 93l51 -54l-150 -147z" />
    <glyph glyph-name="Dcaron" unicode="&#x10e;" horiz-adv-x="685" 
d="M85 0v690h265q270 0 270 -270v-150q0 -270 -270 -270h-265zM207 110h150q141 0 141 141v188q0 141 -141 141h-150v-470zM183 873l51 54l99 -93l98 93l52 -54l-150 -147z" />
    <glyph glyph-name="dcaron" unicode="&#x10f;" horiz-adv-x="664" 
d="M67 158v209q0 158 158 158h171v215h116v-740h-287q-158 0 -158 158zM184 148q0 -46 46 -46h166v322h-166q-46 0 -46 -47v-229zM562 586l36 179h80l12 -18l-59 -178z" />
    <glyph glyph-name="Dcroat" unicode="&#x110;" horiz-adv-x="699" 
d="M20 297v96h79v297h292q243 0 243 -243v-204q0 -243 -243 -243h-292v297h-79zM221 110h170q121 0 121 121v228q0 121 -121 121h-170v-187h145v-96h-145v-187z" />
    <glyph glyph-name="dcroat" unicode="&#x111;" horiz-adv-x="587" 
d="M67 158v209q0 158 158 158h171v67h-159v81h159v67h116v-67h69v-81h-69v-592h-287q-158 0 -158 158zM184 148q0 -46 46 -46h166v322h-166q-46 0 -46 -47v-229z" />
    <glyph glyph-name="Emacron" unicode="&#x112;" horiz-adv-x="599" 
d="M85 0v690h464v-110h-342v-167h312v-110h-312v-193h342v-110h-464zM179 776v84h280v-84h-280z" />
    <glyph glyph-name="emacron" unicode="&#x113;" horiz-adv-x="579" 
d="M67 158v209q0 158 158 158h130q157 0 157 -158v-150h-328v-69q0 -46 46 -46h262v-63l-53 -39h-214q-158 0 -158 158zM184 311h212v66q0 47 -47 47h-119q-46 0 -46 -47v-66zM149 621v84h281v-84h-281z" />
    <glyph glyph-name="Edotaccent" unicode="&#x116;" horiz-adv-x="599" 
d="M85 0v690h464v-110h-342v-167h312v-110h-312v-193h342v-110h-464zM258 769v118h121v-118h-121z" />
    <glyph glyph-name="edotaccent" unicode="&#x117;" horiz-adv-x="579" 
d="M67 158v209q0 158 158 158h130q157 0 157 -158v-150h-328v-69q0 -46 46 -46h262v-63l-53 -39h-214q-158 0 -158 158zM184 311h212v66q0 47 -47 47h-119q-46 0 -46 -47v-66zM229 614v118h121v-118h-121z" />
    <glyph glyph-name="Eogonek" unicode="&#x118;" horiz-adv-x="599" 
d="M85 0v690h464v-110h-342v-167h312v-110h-312v-193h342v-110h-464zM342 -32q0 114 114 114h21v-82h-25q-20 0 -20 -20v-62q0 -20 20 -20h97v-49l-42 -33h-51q-114 0 -114 114v38z" />
    <glyph glyph-name="eogonek" unicode="&#x119;" horiz-adv-x="579" 
d="M67 158v209q0 158 158 158h130q157 0 157 -158v-150h-328v-69q0 -46 46 -46h262v-63l-53 -39h-214q-158 0 -158 158zM184 311h212v66q0 47 -47 47h-119q-46 0 -46 -47v-66zM275 -32q0 114 114 114h21v-82h-25q-20 0 -20 -20v-62q0 -20 20 -20h97v-49l-42 -33h-51
q-114 0 -114 114v38z" />
    <glyph glyph-name="Ecaron" unicode="&#x11a;" horiz-adv-x="599" 
d="M85 0v690h464v-110h-342v-167h312v-110h-312v-193h342v-110h-464zM169 873l51 54l99 -93l98 93l52 -54l-150 -147z" />
    <glyph glyph-name="ecaron" unicode="&#x11b;" horiz-adv-x="579" 
d="M67 158v209q0 158 158 158h130q157 0 157 -158v-150h-328v-69q0 -46 46 -46h262v-63l-53 -39h-214q-158 0 -158 158zM184 311h212v66q0 47 -47 47h-119q-46 0 -46 -47v-66zM140 718l51 54l98 -93l99 93l51 -54l-150 -147z" />
    <glyph glyph-name="Gbreve" unicode="&#x11e;" horiz-adv-x="675" 
d="M75 162v366q0 162 162 162h294l59 -46v-64h-349q-44 0 -44 -44v-382q0 -44 44 -44h247v193h-146v110h268v-413h-373q-162 0 -162 162zM210 832v62h70v-60q0 -12 12 -12h102q12 0 12 12v60h70v-62q0 -80 -80 -80h-106q-80 0 -80 80z" />
    <glyph glyph-name="gbreve" unicode="&#x11f;" horiz-adv-x="582" 
d="M64 158v209q0 158 158 158h288v-567q0 -158 -158 -158h-192l-52 39v63h239q46 0 46 46v52h-171q-158 0 -158 158zM181 148q0 -46 46 -46h166v322h-166q-46 0 -46 -47v-229zM154 677v62h71v-60q0 -12 11 -12h103q11 0 11 12v60h71v-62q0 -80 -81 -80h-106q-80 0 -80 80z
" />
    <glyph glyph-name="uni0122" unicode="&#x122;" horiz-adv-x="675" 
d="M75 162v366q0 162 162 162h294l59 -46v-64h-349q-44 0 -44 -44v-382q0 -44 44 -44h247v193h-146v110h268v-413h-373q-162 0 -162 162zM261 -181l31 131h92l12 -18l-56 -135z" />
    <glyph glyph-name="uni0123" unicode="&#x123;" horiz-adv-x="582" 
d="M64 158v209q0 158 158 158h288v-567q0 -158 -158 -158h-192l-52 39v63h239q46 0 46 46v52h-171q-158 0 -158 158zM181 148q0 -46 46 -46h166v322h-166q-46 0 -46 -47v-229zM244 617l55 135l79 -22l-30 -131h-92z" />
    <glyph glyph-name="Imacron" unicode="&#x12a;" horiz-adv-x="292" 
d="M85 0v690h122v-690h-122zM6 776v84h280v-84h-280z" />
    <glyph glyph-name="imacron" unicode="&#x12b;" horiz-adv-x="266" 
d="M75 0v525h117v-525h-117zM-7 621v84h281v-84h-281z" />
    <glyph glyph-name="Iogonek" unicode="&#x12e;" horiz-adv-x="292" 
d="M85 0v690h122v-690h-122zM17 -32q0 114 114 114h21v-82h-25q-20 0 -20 -20v-62q0 -20 20 -20h97v-49l-42 -33h-51q-114 0 -114 114v38z" />
    <glyph glyph-name="iogonek" unicode="&#x12f;" horiz-adv-x="266" 
d="M73 614v118h121v-118h-121zM75 0v525h117v-525h-117zM5 -32q0 114 114 114h21v-82h-25q-20 0 -20 -20v-62q0 -20 20 -20h97v-49l-42 -33h-51q-114 0 -114 114v38z" />
    <glyph glyph-name="Idotaccent" unicode="&#x130;" horiz-adv-x="292" 
d="M85 0v690h122v-690h-122zM85 769v118h121v-118h-121z" />
    <glyph glyph-name="dotlessi" unicode="&#x131;" horiz-adv-x="266" 
d="M75 0v525h117v-525h-117z" />
    <glyph glyph-name="uni0136" unicode="&#x136;" horiz-adv-x="656" 
d="M85 0v690h122v-303l271 303h113l12 -25l-232 -259l257 -381l-12 -25h-112l-212 318l-85 -93v-225h-122zM249 -181l31 131h92l12 -18l-56 -135z" />
    <glyph glyph-name="uni0137" unicode="&#x137;" horiz-adv-x="561" 
d="M75 0v740h117v-438l204 223h114l10 -20l-184 -199l198 -286l-10 -20h-113l-152 222l-67 -73v-149h-117zM201 -181l31 131h92l12 -18l-56 -135z" />
    <glyph glyph-name="Lacute" unicode="&#x139;" horiz-adv-x="543" 
d="M85 0v690h122v-580h312v-110h-434zM84 784l135 153l67 -64l-144 -144z" />
    <glyph glyph-name="lacute" unicode="&#x13a;" horiz-adv-x="292" 
d="M71 174v566h117v-578q0 -64 66 -70v-101q-183 0 -183 183zM53 830l134 153l67 -64l-144 -143z" />
    <glyph glyph-name="uni013B" unicode="&#x13b;" horiz-adv-x="543" 
d="M85 0v690h122v-580h312v-110h-434zM221 -181l31 131h92l12 -18l-56 -135z" />
    <glyph glyph-name="uni013C" unicode="&#x13c;" horiz-adv-x="292" 
d="M71 174v566h117v-578q0 -64 66 -70v-101q-183 0 -183 183zM88 -181l31 131h92l12 -18l-56 -135z" />
    <glyph glyph-name="Lcaron" unicode="&#x13d;" horiz-adv-x="543" 
d="M85 0v690h122v-580h312v-110h-434zM310 536l36 179h80l12 -18l-59 -178z" />
    <glyph glyph-name="lcaron" unicode="&#x13e;" horiz-adv-x="355" 
d="M71 174v566h117v-578q0 -64 66 -70v-101q-183 0 -183 183zM237 586l36 179h80l12 -18l-59 -178z" />
    <glyph glyph-name="Lslash" unicode="&#x141;" horiz-adv-x="565" 
d="M10 295l97 56v339h122v-269l123 71l47 -82l-170 -98v-202h312v-110h-434v241l-50 -28z" />
    <glyph glyph-name="lslash" unicode="&#x142;" horiz-adv-x="313" 
d="M-3 343l89 51v346h117v-279l67 39l44 -77l-111 -64v-197q0 -64 66 -70v-101q-183 0 -183 183v118l-44 -26z" />
    <glyph glyph-name="Nacute" unicode="&#x143;" horiz-adv-x="731" 
d="M85 0v690h133l307 -493v493h121v-690h-132l-307 493v-493h-122zM295 784l135 153l67 -64l-144 -144z" />
    <glyph glyph-name="nacute" unicode="&#x144;" horiz-adv-x="591" 
d="M75 0v525h288q157 0 157 -158v-367h-116v377q0 47 -47 47h-165v-424h-117zM221 629l134 153l67 -64l-144 -143z" />
    <glyph glyph-name="uni0145" unicode="&#x145;" horiz-adv-x="731" 
d="M85 0v690h133l307 -493v493h121v-690h-132l-307 493v-493h-122zM278 -181l31 131h92l12 -18l-56 -135z" />
    <glyph glyph-name="uni0146" unicode="&#x146;" horiz-adv-x="591" 
d="M75 0v525h288q157 0 157 -158v-367h-116v377q0 47 -47 47h-165v-424h-117zM216 -181l31 131h92l12 -18l-56 -135z" />
    <glyph glyph-name="Ncaron" unicode="&#x147;" horiz-adv-x="731" 
d="M85 0v690h133l307 -493v493h121v-690h-132l-307 493v-493h-122zM222 873l51 54l99 -93l98 93l52 -54l-150 -147z" />
    <glyph glyph-name="ncaron" unicode="&#x148;" horiz-adv-x="591" 
d="M75 0v525h288q157 0 157 -158v-367h-116v377q0 47 -47 47h-165v-424h-117zM148 718l51 54l98 -93l99 93l51 -54l-150 -147z" />
    <glyph glyph-name="Omacron" unicode="&#x14c;" horiz-adv-x="705" 
d="M75 162v366q0 162 162 162h231q162 0 162 -162v-366q0 -162 -162 -162h-231q-162 0 -162 162zM197 154q0 -44 44 -44h223q44 0 44 44v382q0 44 -44 44h-223q-44 0 -44 -44v-382zM213 776v84h280v-84h-280z" />
    <glyph glyph-name="omacron" unicode="&#x14d;" horiz-adv-x="589" 
d="M67 158v209q0 158 158 158h140q157 0 157 -158v-209q0 -158 -157 -158h-140q-158 0 -158 158zM184 148q0 -46 46 -46h129q47 0 47 46v229q0 47 -47 47h-129q-46 0 -46 -47v-229zM154 621v84h281v-84h-281z" />
    <glyph glyph-name="Ohungarumlaut" unicode="&#x150;" horiz-adv-x="705" 
d="M75 162v366q0 162 162 162h231q162 0 162 -162v-366q0 -162 -162 -162h-231q-162 0 -162 162zM197 154q0 -44 44 -44h223q44 0 44 44v382q0 44 -44 44h-223q-44 0 -44 -44v-382zM202 778l115 159l71 -55l-126 -153zM380 778l114 159l71 -55l-125 -153z" />
    <glyph glyph-name="ohungarumlaut" unicode="&#x151;" horiz-adv-x="589" 
d="M67 158v209q0 158 158 158h140q157 0 157 -158v-209q0 -158 -157 -158h-140q-158 0 -158 158zM184 148q0 -46 46 -46h129q47 0 47 46v229q0 47 -47 47h-129q-46 0 -46 -47v-229zM144 623l114 159l71 -55l-125 -152zM321 623l115 159l71 -55l-125 -152z" />
    <glyph glyph-name="OE" unicode="&#x152;" horiz-adv-x="971" 
d="M75 162v366q0 162 162 162h684v-110h-324v-167h294v-110h-294v-193h324v-110h-684q-162 0 -162 162zM197 154q0 -44 44 -44h235v470h-235q-44 0 -44 -44v-382z" />
    <glyph glyph-name="oe" unicode="&#x153;" horiz-adv-x="910" 
d="M67 158v209q0 158 158 158h125q70 0 110 -40q40 40 110 40h116q157 0 157 -158v-150h-325v-69q0 -46 46 -46h259v-63l-52 -39h-201q-70 0 -110 40q-40 -40 -110 -40h-125q-158 0 -158 158zM184 148q0 -46 46 -46h126q46 0 46 46v229q0 47 -46 47h-126q-46 0 -46 -47v-229
zM518 311h209v66q0 47 -46 47h-117q-46 0 -46 -47v-66z" />
    <glyph glyph-name="Racute" unicode="&#x154;" horiz-adv-x="645" 
d="M85 0v690h333q162 0 162 -162v-113q0 -127 -100 -154l120 -235l-15 -26h-104l-128 253h-146v-253h-122zM207 363h207q44 0 44 44v129q0 44 -44 44h-207v-217zM242 784l135 153l67 -64l-144 -144z" />
    <glyph glyph-name="racute" unicode="&#x155;" horiz-adv-x="392" 
d="M71 0v460q36 65 138 65h105l52 -39v-62h-137q-29 0 -41 -15v-409h-117zM139 629l134 153l67 -64l-144 -143z" />
    <glyph glyph-name="uni0156" unicode="&#x156;" horiz-adv-x="645" 
d="M85 0v690h333q162 0 162 -162v-113q0 -127 -100 -154l120 -235l-15 -26h-104l-128 253h-146v-253h-122zM207 363h207q44 0 44 44v129q0 44 -44 44h-207v-217zM237 -181l31 131h92l12 -18l-56 -135z" />
    <glyph glyph-name="uni0157" unicode="&#x157;" horiz-adv-x="392" 
d="M71 0v460q36 65 138 65h105l52 -39v-62h-137q-29 0 -41 -15v-409h-117zM37 -181l31 131h92l12 -18l-56 -135z" />
    <glyph glyph-name="Rcaron" unicode="&#x158;" horiz-adv-x="645" 
d="M85 0v690h333q162 0 162 -162v-113q0 -127 -100 -154l120 -235l-15 -26h-104l-128 253h-146v-253h-122zM207 363h207q44 0 44 44v129q0 44 -44 44h-207v-217zM169 873l51 54l99 -93l98 93l52 -54l-150 -147z" />
    <glyph glyph-name="rcaron" unicode="&#x159;" horiz-adv-x="392" 
d="M71 0v460q36 65 138 65h105l52 -39v-62h-137q-29 0 -41 -15v-409h-117zM66 718l51 54l98 -93l99 93l51 -54l-150 -147z" />
    <glyph glyph-name="Sacute" unicode="&#x15a;" horiz-adv-x="585" 
d="M55 46v64h309q44 0 44 44v76q0 39 -34 46l-203 40q-116 24 -116 157v55q0 162 162 162h234l59 -46v-64h-289q-44 0 -44 -44v-66q0 -39 34 -46l203 -40q116 -24 116 -156v-66q0 -162 -162 -162h-254zM216 784l135 153l67 -64l-144 -144z" />
    <glyph glyph-name="sacute" unicode="&#x15b;" horiz-adv-x="505" 
d="M56 39v63h230q48 0 48 49q0 51 -42 58l-112 18q-124 21 -124 141q0 157 158 157h159l52 -39v-62h-206q-47 0 -47 -50q0 -47 41 -54l113 -19q123 -20 123 -144q0 -157 -157 -157h-183zM176 629l134 153l67 -64l-144 -143z" />
    <glyph glyph-name="Scedilla" unicode="&#x15e;" horiz-adv-x="585" 
d="M55 46v64h309q44 0 44 44v76q0 39 -34 46l-203 40q-116 24 -116 157v55q0 162 162 162h234l59 -46v-64h-289q-44 0 -44 -44v-66q0 -39 34 -46l203 -40q116 -24 116 -156v-66q0 -162 -162 -162h-254zM181 -102h101q20 0 20 20v133h90v-121q0 -114 -114 -114h-55l-42 33v49
z" />
    <glyph glyph-name="scedilla" unicode="&#x15f;" horiz-adv-x="505" 
d="M56 39v63h230q48 0 48 49q0 51 -42 58l-112 18q-124 21 -124 141q0 157 158 157h159l52 -39v-62h-206q-47 0 -47 -50q0 -47 41 -54l113 -19q123 -20 123 -144q0 -157 -157 -157h-183zM141 -102h101q20 0 20 20v133h90v-121q0 -114 -114 -114h-55l-42 33v49z" />
    <glyph glyph-name="Scaron" unicode="&#x160;" horiz-adv-x="585" 
d="M55 46v64h309q44 0 44 44v76q0 39 -34 46l-203 40q-116 24 -116 157v55q0 162 162 162h234l59 -46v-64h-289q-44 0 -44 -44v-66q0 -39 34 -46l203 -40q116 -24 116 -156v-66q0 -162 -162 -162h-254zM143 873l51 54l99 -93l98 93l52 -54l-150 -147z" />
    <glyph glyph-name="scaron" unicode="&#x161;" horiz-adv-x="505" 
d="M56 39v63h230q48 0 48 49q0 51 -42 58l-112 18q-124 21 -124 141q0 157 158 157h159l52 -39v-62h-206q-47 0 -47 -50q0 -47 41 -54l113 -19q123 -20 123 -144q0 -157 -157 -157h-183zM103 718l51 54l98 -93l99 93l51 -54l-150 -147z" />
    <glyph glyph-name="uni0162" unicode="&#x162;" horiz-adv-x="605" 
d="M24 580v110h557v-110h-218v-580h-122v580h-217zM191 -102h101q20 0 20 20v133h90v-121q0 -114 -114 -114h-55l-42 33v49z" />
    <glyph glyph-name="uni0163" unicode="&#x163;" horiz-adv-x="412" 
d="M71 158v532h117v-165h178v-101h-178v-276q0 -46 46 -46h142v-63l-52 -39h-95q-158 0 -158 158zM121 -102h101q20 0 20 20v133h90v-121q0 -114 -114 -114h-55l-42 33v49z" />
    <glyph glyph-name="Tcaron" unicode="&#x164;" horiz-adv-x="605" 
d="M24 580v110h557v-110h-218v-580h-122v580h-217zM153 873l51 54l99 -93l98 93l52 -54l-150 -147z" />
    <glyph glyph-name="tcaron" unicode="&#x165;" horiz-adv-x="412" 
d="M71 158v532h117v-165h178v-101h-178v-276q0 -46 46 -46h142v-63l-52 -39h-95q-158 0 -158 158zM245 602l36 179h80l12 -18l-59 -178z" />
    <glyph glyph-name="Umacron" unicode="&#x16a;" horiz-adv-x="693" 
d="M79 162v528h122v-536q0 -44 44 -44h203q44 0 44 44v536h122v-528q0 -162 -162 -162h-211q-162 0 -162 162zM207 776v84h280v-84h-280z" />
    <glyph glyph-name="umacron" unicode="&#x16b;" horiz-adv-x="591" 
d="M71 158v367h117v-377q0 -46 46 -46h166v423h116v-525h-287q-158 0 -158 158zM153 621v84h281v-84h-281z" />
    <glyph glyph-name="Uring" unicode="&#x16e;" horiz-adv-x="693" 
d="M79 162v528h122v-536q0 -44 44 -44h203q44 0 44 44v536h122v-528q0 -162 -162 -162h-211q-162 0 -162 162zM236 801v58q0 76 76 76h69q77 0 77 -76v-58q0 -76 -77 -76h-69q-76 0 -76 76zM304 797q0 -12 13 -12h60q12 0 12 12v66q0 12 -12 12h-60q-13 0 -13 -12v-66z" />
    <glyph glyph-name="uring" unicode="&#x16f;" horiz-adv-x="591" 
d="M71 158v367h117v-377q0 -46 46 -46h166v423h116v-525h-287q-158 0 -158 158zM183 646v58q0 76 76 76h69q76 0 76 -76v-58q0 -76 -76 -76h-69q-76 0 -76 76zM251 642q0 -12 12 -12h60q13 0 13 12v66q0 12 -13 12h-60q-12 0 -12 -12v-66z" />
    <glyph glyph-name="Uhungarumlaut" unicode="&#x170;" horiz-adv-x="693" 
d="M79 162v528h122v-536q0 -44 44 -44h203q44 0 44 44v536h122v-528q0 -162 -162 -162h-211q-162 0 -162 162zM196 778l115 159l71 -55l-126 -153zM374 778l114 159l71 -55l-125 -153z" />
    <glyph glyph-name="uhungarumlaut" unicode="&#x171;" horiz-adv-x="591" 
d="M71 158v367h117v-377q0 -46 46 -46h166v423h116v-525h-287q-158 0 -158 158zM143 623l114 159l71 -55l-125 -152zM320 623l115 159l71 -55l-125 -152z" />
    <glyph glyph-name="Uogonek" unicode="&#x172;" horiz-adv-x="693" 
d="M79 162v528h122v-536q0 -44 44 -44h203q44 0 44 44v536h122v-528q0 -162 -162 -162h-211q-162 0 -162 162zM303 -32q0 114 114 114h21v-82h-25q-20 0 -20 -20v-62q0 -20 20 -20h97v-49l-42 -33h-51q-114 0 -114 114v38z" />
    <glyph glyph-name="uogonek" unicode="&#x173;" horiz-adv-x="591" 
d="M71 158v367h117v-377q0 -46 46 -46h166v423h116v-525h-287q-158 0 -158 158zM309 -32q0 114 114 114h21v-82h-25q-20 0 -20 -20v-62q0 -20 20 -20h97v-49l-42 -33h-51q-114 0 -114 114v38z" />
    <glyph glyph-name="Ydieresis" unicode="&#x178;" horiz-adv-x="603" 
d="M19 666l15 24h103l164 -314l164 314h104l15 -24l-222 -418v-248h-122v248zM153 763v110h105v-110h-105zM345 763v110h106v-110h-106z" />
    <glyph glyph-name="Zacute" unicode="&#x179;" horiz-adv-x="605" 
d="M45 0v95l352 485h-342v110h495v-95l-352 -485h362v-110h-515zM226 784l135 153l67 -64l-144 -144z" />
    <glyph glyph-name="zacute" unicode="&#x17a;" horiz-adv-x="515" 
d="M45 0v88l266 336h-256v101h405v-88l-266 -335h276v-102h-425zM181 629l134 153l67 -64l-144 -143z" />
    <glyph glyph-name="Zdotaccent" unicode="&#x17b;" horiz-adv-x="605" 
d="M45 0v95l352 485h-342v110h495v-95l-352 -485h362v-110h-515zM242 769v118h121v-118h-121z" />
    <glyph glyph-name="zdotaccent" unicode="&#x17c;" horiz-adv-x="515" 
d="M45 0v88l266 336h-256v101h405v-88l-266 -335h276v-102h-425zM197 614v118h121v-118h-121z" />
    <glyph glyph-name="Zcaron" unicode="&#x17d;" horiz-adv-x="605" 
d="M45 0v95l352 485h-342v110h495v-95l-352 -485h362v-110h-515zM153 873l51 54l99 -93l98 93l52 -54l-150 -147z" />
    <glyph glyph-name="zcaron" unicode="&#x17e;" horiz-adv-x="515" 
d="M45 0v88l266 336h-256v101h405v-88l-266 -335h276v-102h-425zM108 718l51 54l98 -93l99 93l51 -54l-150 -147z" />
    <glyph glyph-name="florin" unicode="&#x192;" horiz-adv-x="575" 
d="M40 -52h99q46 0 46 46v588q0 158 158 158h95l52 -39v-63h-142q-46 0 -46 -46v-67h178v-101h-178v-420q0 -158 -158 -158h-51l-53 40v62z" />
    <glyph glyph-name="uni0218" unicode="&#x218;" horiz-adv-x="585" 
d="M55 46v64h309q44 0 44 44v76q0 39 -34 46l-203 40q-116 24 -116 157v55q0 162 162 162h234l59 -46v-64h-289q-44 0 -44 -44v-66q0 -39 34 -46l203 -40q116 -24 116 -156v-66q0 -162 -162 -162h-254zM211 -181l31 131h92l12 -18l-56 -135z" />
    <glyph glyph-name="uni0219" unicode="&#x219;" horiz-adv-x="505" 
d="M56 39v63h230q48 0 48 49q0 51 -42 58l-112 18q-124 21 -124 141q0 157 158 157h159l52 -39v-62h-206q-47 0 -47 -50q0 -47 41 -54l113 -19q123 -20 123 -144q0 -157 -157 -157h-183zM171 -181l31 131h92l12 -18l-56 -135z" />
    <glyph glyph-name="uni021A" unicode="&#x21a;" horiz-adv-x="605" 
d="M24 580v110h557v-110h-218v-580h-122v580h-217zM221 -181l31 131h92l12 -18l-56 -135z" />
    <glyph glyph-name="uni021B" unicode="&#x21b;" horiz-adv-x="412" 
d="M71 158v532h117v-165h178v-101h-178v-276q0 -46 46 -46h142v-63l-52 -39h-95q-158 0 -158 158zM151 -181l31 131h92l12 -18l-56 -135z" />
    <glyph glyph-name="uni0237" unicode="&#x237;" horiz-adv-x="266" 
d="M-9 -110q84 6 84 88v547h117v-533q0 -201 -201 -201v99z" />
    <glyph glyph-name="circumflex" unicode="&#x2c6;" horiz-adv-x="500" 
d="M101 635l149 147l150 -147l-51 -54l-99 93l-98 -93z" />
    <glyph glyph-name="caron" unicode="&#x2c7;" horiz-adv-x="500" 
d="M101 718l51 54l98 -93l99 93l51 -54l-150 -147z" />
    <glyph glyph-name="uni02C9" unicode="&#x2c9;" horiz-adv-x="500" 
d="M110 621v84h281v-84h-281z" />
    <glyph glyph-name="breve" unicode="&#x2d8;" horiz-adv-x="500" 
d="M117 677v62h71v-60q0 -12 11 -12h103q11 0 11 12v60h71v-62q0 -80 -81 -80h-106q-80 0 -80 80z" />
    <glyph glyph-name="dotaccent" unicode="&#x2d9;" horiz-adv-x="500" 
d="M190 614v118h121v-118h-121z" />
    <glyph glyph-name="ring" unicode="&#x2da;" horiz-adv-x="500" 
d="M140 646v58q0 76 76 76h69q76 0 76 -76v-58q0 -76 -76 -76h-69q-76 0 -76 76zM208 642q0 -12 12 -12h60q13 0 13 12v66q0 12 -13 12h-60q-12 0 -12 -12v-66z" />
    <glyph glyph-name="ogonek" unicode="&#x2db;" horiz-adv-x="500" 
d="M163 -32q0 114 114 114h21v-82h-25q-20 0 -20 -20v-62q0 -20 20 -20h97v-49l-42 -33h-51q-114 0 -114 114v38z" />
    <glyph glyph-name="tilde" unicode="&#x2dc;" horiz-adv-x="500" 
d="M82 647l63 63q20 20 53 20t53 -20l42 -42q5 -5 10 -5t10 5l55 55l51 -52l-63 -63q-20 -20 -53 -20t-53 20l-42 42q-5 5 -10 5t-10 -5l-55 -55z" />
    <glyph glyph-name="hungarumlaut" unicode="&#x2dd;" horiz-adv-x="500" 
d="M100 623l114 159l71 -55l-125 -152zM277 623l115 159l71 -55l-125 -152z" />
    <glyph glyph-name="uni0300" unicode="&#x300;" horiz-adv-x="0" 
d="M-413 718l67 64l134 -153l-58 -54z" />
    <glyph glyph-name="uni0301" unicode="&#x301;" horiz-adv-x="0" 
d="M-365 629l134 153l67 -64l-144 -143z" />
    <glyph glyph-name="uni0302" unicode="&#x302;" horiz-adv-x="0" 
d="M-438 635l149 147l150 -147l-51 -54l-99 93l-98 -93z" />
    <glyph glyph-name="uni0303" unicode="&#x303;" horiz-adv-x="0" 
d="M-457 647l63 63q20 20 53 20t53 -20l42 -42q5 -5 10 -5t10 5l55 55l51 -52l-63 -63q-20 -20 -53 -20t-53 20l-42 42q-5 5 -10 5t-10 -5l-55 -55z" />
    <glyph glyph-name="uni0304" unicode="&#x304;" horiz-adv-x="0" 
d="M-429 621v84h281v-84h-281z" />
    <glyph glyph-name="uni0306" unicode="&#x306;" horiz-adv-x="0" 
d="M-422 677v62h71v-60q0 -12 11 -12h103q11 0 11 12v60h71v-62q0 -80 -81 -80h-106q-80 0 -80 80z" />
    <glyph glyph-name="uni0307" unicode="&#x307;" horiz-adv-x="0" 
d="M-349 614v118h121v-118h-121z" />
    <glyph glyph-name="uni0308" unicode="&#x308;" horiz-adv-x="0" 
d="M-437 608v110h105v-110h-105zM-245 608v110h105v-110h-105z" />
    <glyph glyph-name="uni030A" unicode="&#x30a;" horiz-adv-x="0" 
d="M-399 646v58q0 76 76 76h69q76 0 76 -76v-58q0 -76 -76 -76h-69q-76 0 -76 76zM-331 642q0 -12 12 -12h60q13 0 13 12v66q0 12 -13 12h-60q-12 0 -12 -12v-66z" />
    <glyph glyph-name="uni030B" unicode="&#x30b;" horiz-adv-x="0" 
d="M-439 623l114 159l71 -55l-125 -152zM-262 623l115 159l71 -55l-125 -152z" />
    <glyph glyph-name="uni030C" unicode="&#x30c;" horiz-adv-x="0" 
d="M-438 718l51 54l98 -93l99 93l51 -54l-150 -147z" />
    <glyph glyph-name="uni0326" unicode="&#x326;" horiz-adv-x="0" 
d="M-370 -181l31 131h92l12 -18l-56 -135z" />
    <glyph glyph-name="uni0327" unicode="&#x327;" horiz-adv-x="0" 
d="M-400 -102h101q20 0 20 20v133h90v-121q0 -114 -114 -114h-55l-42 33v49z" />
    <glyph glyph-name="uni0328" unicode="&#x328;" horiz-adv-x="0" 
d="M-376 -32q0 114 114 114h21v-82h-25q-20 0 -20 -20v-62q0 -20 20 -20h97v-49l-42 -33h-51q-114 0 -114 114v38z" />
    <glyph glyph-name="pi" unicode="&#x3c0;" horiz-adv-x="595" 
d="M75 0v525h445v-525h-116v424h-212v-424h-117z" />
    <glyph glyph-name="uni1E9E" unicode="&#x1e9e;" horiz-adv-x="695" 
d="M79 0v528q0 162 162 162h333v-95l-133 -182h37q162 0 162 -163v-88q0 -162 -162 -162h-136l-59 46v64h192q44 0 44 44v105q0 44 -44 44h-178v95l133 182h-185q-44 0 -44 -44v-536h-122z" />
    <glyph glyph-name="endash" unicode="&#x2013;" horiz-adv-x="580" 
d="M40 255v100h500v-100h-500z" />
    <glyph glyph-name="emdash" unicode="&#x2014;" horiz-adv-x="1000" 
d="M40 255v100h920v-100h-920z" />
    <glyph glyph-name="quoteleft" unicode="&#x2018;" horiz-adv-x="271" 
d="M45 497l99 259l86 -22l-65 -255h-108z" />
    <glyph glyph-name="quoteright" unicode="&#x2019;" horiz-adv-x="271" 
d="M41 484l65 256h108l12 -18l-99 -260z" />
    <glyph glyph-name="quotesinglbase" unicode="&#x201a;" horiz-adv-x="271" 
d="M26 -124l65 255h108l12 -18l-99 -259z" />
    <glyph glyph-name="quotedblleft" unicode="&#x201c;" horiz-adv-x="477" 
d="M45 497l99 259l86 -22l-65 -255h-108zM250 497l99 259l86 -22l-65 -255h-108z" />
    <glyph glyph-name="quotedblright" unicode="&#x201d;" horiz-adv-x="477" 
d="M41 484l65 256h108l12 -18l-99 -260zM246 484l65 256h108l12 -18l-99 -260z" />
    <glyph glyph-name="quotedblbase" unicode="&#x201e;" horiz-adv-x="477" 
d="M26 -124l65 255h108l12 -18l-99 -259zM231 -124l65 255h108l12 -18l-99 -259z" />
    <glyph glyph-name="dagger" unicode="&#x2020;" horiz-adv-x="495" 
d="M50 405v100h145v185h105v-185h145v-100h-145v-505h-105v505h-145z" />
    <glyph glyph-name="daggerdbl" unicode="&#x2021;" horiz-adv-x="495" 
d="M50 85v100h145v220h-145v100h145v185h105v-185h145v-100h-145v-220h145v-100h-145v-185h-105v185h-145z" />
    <glyph glyph-name="bullet" unicode="&#x2022;" horiz-adv-x="365" 
d="M70 247v226h225v-226h-225z" />
    <glyph glyph-name="ellipsis" unicode="&#x2026;" horiz-adv-x="814" 
d="M70 0v131h131v-131h-131zM341 0v131h131v-131h-131zM613 0v131h131v-131h-131z" />
    <glyph glyph-name="perthousand" unicode="&#x2030;" horiz-adv-x="1234" 
d="M36 390v186q0 114 114 114h64q114 0 114 -114v-186q0 -114 -114 -114h-64q-114 0 -114 114zM128 379q0 -20 19 -20h69q20 0 20 20v208q0 20 -20 20h-69q-19 0 -19 -20v-208zM230 36l330 660l85 -42l-330 -660zM546 114v186q0 114 114 114h64q114 0 114 -114v-186
q0 -114 -114 -114h-64q-114 0 -114 114zM638 103q0 -20 19 -20h69q20 0 20 20v208q0 20 -20 20h-69q-19 0 -19 -20v-208zM906 114v186q0 114 114 114h64q114 0 114 -114v-186q0 -114 -114 -114h-64q-114 0 -114 114zM998 103q0 -20 19 -20h69q20 0 20 20v208q0 20 -20 20
h-69q-19 0 -19 -20v-208z" />
    <glyph glyph-name="guilsinglleft" unicode="&#x2039;" horiz-adv-x="328" 
d="M30 315l186 234l72 -60l-134 -174l134 -174l-72 -60z" />
    <glyph glyph-name="guilsinglright" unicode="&#x203a;" horiz-adv-x="328" 
d="M40 141l134 174l-134 174l72 60l186 -234l-186 -234z" />
    <glyph glyph-name="fraction" unicode="&#x2044;" horiz-adv-x="146" 
d="M-134 36l330 660l85 -42l-330 -660z" />
    <glyph glyph-name="uni2070" unicode="&#x2070;" horiz-adv-x="364" 
d="M36 390v186q0 114 114 114h64q114 0 114 -114v-186q0 -114 -114 -114h-64q-114 0 -114 114zM128 379q0 -20 19 -20h69q20 0 20 20v208q0 20 -20 20h-69q-19 0 -19 -20v-208z" />
    <glyph glyph-name="uni2074" unicode="&#x2074;" horiz-adv-x="364" 
d="M36 336v76l126 278h81l11 -18l-116 -253h98v111h92v-254h-92v60h-200z" />
    <glyph glyph-name="uni2080" unicode="&#x2080;" horiz-adv-x="364" 
d="M36 114v186q0 114 114 114h64q114 0 114 -114v-186q0 -114 -114 -114h-64q-114 0 -114 114zM128 103q0 -20 19 -20h69q20 0 20 20v208q0 20 -20 20h-69q-19 0 -19 -20v-208z" />
    <glyph glyph-name="uni2081" unicode="&#x2081;" horiz-adv-x="364" 
d="M54 0v83h93v248h-76v50l42 33h126v-331h83v-83h-268z" />
    <glyph glyph-name="uni2082" unicode="&#x2082;" horiz-adv-x="364" 
d="M36 0v130q0 87 85 104l94 19q21 4 21 25v33q0 20 -20 20h-168v50l42 33h124q114 0 114 -114v-23q0 -88 -85 -105l-94 -19q-21 -4 -21 -24v-46h200v-83h-292z" />
    <glyph glyph-name="uni2083" unicode="&#x2083;" horiz-adv-x="364" 
d="M42 33v50h174q20 0 20 20v47q0 20 -20 20h-130v83h130q20 0 20 19v39q0 20 -20 20h-168v50l42 33h124q114 0 114 -114v-21q0 -27 -17 -44l-23 -23l23 -23q17 -17 17 -44v-31q0 -114 -114 -114h-130z" />
    <glyph glyph-name="uni2084" unicode="&#x2084;" horiz-adv-x="364" 
d="M36 60v76l126 278h81l11 -18l-116 -253h98v111h92v-254h-92v60h-200z" />
    <glyph glyph-name="Euro" unicode="&#x20ac;" 
d="M28 231v81h68v66h-68v81h68v69q0 162 163 162h222l59 -46v-64h-278q-44 0 -44 -44v-77h248v-81h-248v-66h204v-81h-204v-77q0 -44 44 -44h278v-64l-59 -46h-222q-163 0 -163 162v69h-68z" />
    <glyph glyph-name="uni20BA" unicode="&#x20ba;" 
d="M23 308l93 38v63l-63 -26l-30 75l93 38v194h122v-145l174 70l30 -75l-204 -82v-63l174 70l30 -75l-204 -82v-198h30q147 0 147 145v45h117v-30q0 -270 -271 -270h-145v259l-63 -26z" />
    <glyph glyph-name="uni20BD" unicode="&#x20bd;" 
d="M36 134v97h50v63h-50v102h50v294h283q163 0 163 -162v-71q0 -163 -163 -163h-161v-63h198v-97h-198v-134h-122v134h-50zM208 396h158q44 0 44 44v96q0 44 -44 44h-158v-184z" />
    <glyph glyph-name="uni2113" unicode="&#x2113;" horiz-adv-x="292" 
d="M71 174v566h117v-578q0 -64 66 -70v-101q-183 0 -183 183z" />
    <glyph glyph-name="trademark" unicode="&#x2122;" horiz-adv-x="790" 
d="M20 612v78h289v-78h-101v-276h-87v276h-101zM348 336v354h101l92 -198l93 198h101v-354h-87v197l-72 -155h-69l-73 155v-197h-86z" />
    <glyph glyph-name="Omega" unicode="&#x2126;" horiz-adv-x="705" 
d="M55 0v110h96l-41 55q-35 46 -35 106v257q0 162 162 162h231q162 0 162 -162v-257q0 -60 -35 -106l-41 -55h96v-110h-245v94l85 114q18 24 18 57v271q0 44 -44 44h-223q-44 0 -44 -44v-271q0 -33 18 -57l85 -114v-94h-245z" />
    <glyph glyph-name="estimated" unicode="&#x212e;" horiz-adv-x="880" 
d="M60 345q0 149 111.5 254.5t268.5 105.5t268.5 -105.5t111.5 -274.5h-620v-198q105 -102 240 -102t247 108l32 -33q-122 -115 -279 -115t-268.5 105.5t-111.5 254.5zM200 365h480v198q-105 102 -240 102t-240 -102v-198z" />
    <glyph glyph-name="partialdiff" unicode="&#x2202;" horiz-adv-x="583" 
d="M67 158v157q0 158 158 158h171v42q0 123 -124 123h-161v63l53 39h105q243 0 243 -243v-339q0 -158 -157 -158h-130q-158 0 -158 158zM184 148q0 -46 46 -46h119q47 0 47 46v223h-166q-46 0 -46 -46v-177z" />
    <glyph glyph-name="Delta" unicode="&#x2206;" horiz-adv-x="663" 
d="M19 24l214 666h196l215 -666l-16 -24h-593zM168 110h326l-150 470h-25z" />
    <glyph glyph-name="product" unicode="&#x220f;" horiz-adv-x="705" 
d="M85 -100v790h535v-790h-122v680h-291v-680h-122z" />
    <glyph glyph-name="summation" unicode="&#x2211;" horiz-adv-x="593" 
d="M50 -5l210 300l-210 300v95h493v-110h-345l200 -285l-200 -285h345v-110h-493v95z" />
    <glyph glyph-name="minus" unicode="&#x2212;" 
d="M61 285v100h456v-100h-456z" />
    <glyph glyph-name="uni2215" unicode="&#x2215;" horiz-adv-x="146" 
d="M-134 36l330 660l85 -42l-330 -660z" />
    <glyph glyph-name="uni2219" unicode="&#x2219;" horiz-adv-x="271" 
d="M70 269v131h131v-131h-131z" />
    <glyph glyph-name="radical" unicode="&#x221a;" horiz-adv-x="600" 
d="M20 315v85h167l92 -276l232 670l89 -30l-271 -774h-106l-111 325h-92z" />
    <glyph glyph-name="infinity" unicode="&#x221e;" horiz-adv-x="613" 
d="M35 293v84q0 114 114 114h85q38 0 72 -34q34 34 72 34h86q114 0 114 -114v-84q0 -114 -114 -114h-86q-38 0 -72 34q-34 -34 -72 -34h-85q-114 0 -114 114zM127 281q0 -19 19 -19h95q19 0 19 19v108q0 19 -19 19h-95q-19 0 -19 -19v-108zM352 281q0 -19 20 -19h94
q20 0 20 19v108q0 19 -20 19h-94q-20 0 -20 -19v-108z" />
    <glyph glyph-name="integral" unicode="&#x222b;" horiz-adv-x="457" 
d="M20 -98h104q46 0 46 46v634q0 158 158 158h56l53 -39v-63h-104q-46 0 -46 -46v-634q0 -158 -158 -158h-56l-53 39v63z" />
    <glyph glyph-name="approxequal" unicode="&#x2248;" 
d="M38 206l92 91q33 34 79 34t79 -34l61 -61q10 -10 20 -10t20 10l79 80l72 -72l-92 -91q-33 -34 -79 -34t-79 34l-61 61q-10 10 -20 10t-20 -10l-79 -80zM38 426l92 91q33 34 79 34t79 -34l61 -61q10 -10 20 -10t20 10l79 80l72 -72l-92 -91q-33 -34 -79 -34t-79 34l-61 61
q-10 10 -20 10t-20 -10l-79 -80z" />
    <glyph glyph-name="notequal" unicode="&#x2260;" 
d="M61 175v100h146l61 120h-207v100h258l59 117l82 -42l-38 -75h95v-100h-146l-61 -120h207v-100h-258l-59 -117l-82 42l38 75h-95z" />
    <glyph glyph-name="lessequal" unicode="&#x2264;" 
d="M61 0v100h456v-100h-456zM64 334v110l414 198l42 -89l-349 -164l349 -164l-42 -89z" />
    <glyph glyph-name="greaterequal" unicode="&#x2265;" 
d="M61 0v100h456v-100h-456zM58 225l349 164l-349 164l42 89l414 -198v-110l-414 -198z" />
    <glyph glyph-name="lozenge" unicode="&#x25ca;" 
d="M38 345l198 345h106l198 -345l-198 -345h-106zM144 345l145 -253l145 253l-145 253z" />
    <glyph glyph-name="uniF000" unicode="&#xf000;" horiz-adv-x="700" 
d="M50 605h600l-300 -520z" />
    <glyph glyph-name="uniFB01" unicode="&#xfb01;" horiz-adv-x="667" 
d="M75 0v582q0 158 158 158h95l52 -39v-63h-142q-46 0 -46 -46v-67h178v-101h-178v-424h-117zM473 614v118h121v-118h-121zM475 0v525h117v-525h-117z" />
    <glyph glyph-name="uniFB02" unicode="&#xfb02;" horiz-adv-x="692" 
d="M75 0v582q0 158 158 158h95l52 -39v-63h-142q-46 0 -46 -46v-67h178v-101h-178v-424h-117zM471 174v566h117v-578q0 -64 66 -70v-101q-183 0 -183 183z" />
    <glyph glyph-name="uni030C.alt" horiz-adv-x="0" 
d="M-64 586l36 179h80l12 -18l-59 -178z" />
    <glyph glyph-name="uni0326.alt" horiz-adv-x="0" 
d="M-43 617l55 135l79 -22l-30 -131h-92z" />
    <glyph glyph-name="uni0300.cap" horiz-adv-x="0" 
d="M-451 873l67 64l134 -153l-57 -55z" />
    <glyph glyph-name="uni0301.cap" horiz-adv-x="0" 
d="M-403 784l135 153l67 -64l-144 -144z" />
    <glyph glyph-name="uni0302.cap" horiz-adv-x="0" 
d="M-476 790l150 147l150 -147l-52 -54l-98 93l-99 -93z" />
    <glyph glyph-name="uni0303.cap" horiz-adv-x="0" 
d="M-495 802l63 63q20 20 53 20t53 -20l42 -42q5 -5 10 -5t10 5l55 55l51 -52l-63 -63q-20 -20 -53 -20t-53 20l-42 42q-5 5 -10 5t-10 -5l-55 -55z" />
    <glyph glyph-name="uni0304.cap" horiz-adv-x="0" 
d="M-466 776v84h280v-84h-280z" />
    <glyph glyph-name="uni0306.cap" horiz-adv-x="0" 
d="M-459 832v62h70v-60q0 -12 12 -12h102q12 0 12 12v60h70v-62q0 -80 -80 -80h-106q-80 0 -80 80z" />
    <glyph glyph-name="uni0307.cap" horiz-adv-x="0" 
d="M-387 769v118h121v-118h-121z" />
    <glyph glyph-name="uni0308.cap" horiz-adv-x="0" 
d="M-475 763v110h105v-110h-105zM-283 763v110h106v-110h-106z" />
    <glyph glyph-name="uni030A.cap" horiz-adv-x="0" 
d="M-437 801v58q0 76 76 76h69q77 0 77 -76v-58q0 -76 -77 -76h-69q-76 0 -76 76zM-369 797q0 -12 13 -12h60q12 0 12 12v66q0 12 -12 12h-60q-13 0 -13 -12v-66z" />
    <glyph glyph-name="uni030B.cap" horiz-adv-x="0" 
d="M-477 778l115 159l71 -55l-126 -153zM-299 778l114 159l71 -55l-125 -153z" />
    <glyph glyph-name="uni030C.cap" horiz-adv-x="0" 
d="M-476 873l51 54l99 -93l98 93l52 -54l-150 -147z" />
    <glyph glyph-name="zero.zero" 
d="M56 162v366q0 162 163 162h140q163 0 163 -162v-366q0 -162 -163 -162h-140q-163 0 -163 162zM178 154q0 -44 44 -44h134q44 0 44 44v382q0 44 -44 44h-134q-44 0 -44 -44v-382zM239 280v130h100v-130h-100z" />
    <glyph glyph-name="one.pnum" 
d="M84 0v110h160v470h-131v64l59 46h194v-580h144v-110h-426z" />
    <glyph glyph-name="four.pnum" 
d="M56 112v100l219 478h103l14 -26l-202 -442h210v208h122v-430h-122v112h-344z" />
    <glyph glyph-name="seven.pnum" 
d="M56 580v110h466v-200l-257 -490h-109l-15 26l259 490v64h-344z" />
    </font>
</defs>
</svg>
